<?xml version="1.0" standalone="no"?>
<!DOCTYPE svg PUBLIC "-//W3C//DTD SVG 1.1//EN" "http://www.w3.org/Graphics/SVG/1.1/DTD/svg11.dtd" >
<svg xmlns="http://www.w3.org/2000/svg">
<metadata>Generated by IcoMoon</metadata>
<defs>
<font id="FontCCwork" horiz-adv-x="1024">
<font-face units-per-em="1024" ascent="960" descent="-64" />
<missing-glyph horiz-adv-x="1024" />
<glyph unicode="&#x20;" horiz-adv-x="512" d="" />
<glyph unicode="&#xe900;" glyph-name="sina-weibo" d="M439.67 134.899c-149.983-14.854-279.449 53.060-289.173 151.396-9.729 98.513 103.995 190.131 253.799 204.985 149.983 14.854 279.449-53.060 288.997-151.396 9.904-98.513-103.821-190.305-253.625-204.985zM739.457 461.567c-12.735 3.89-21.578 6.367-14.854 23.169 14.504 36.432 15.919 67.74 0.174 90.2-29.36 41.916-109.834 39.793-201.978 1.061 0 0-29.005-12.556-21.578 10.262 14.15 45.632 12.025 83.657-10.079 105.761-50.052 50.052-183.055-1.945-297.133-116.024-85.25-85.072-134.769-175.802-134.769-254.155 0-149.625 192.074-240.713 379.904-240.713 246.197 0 410.148 143.086 410.148 256.632 0 68.801-57.835 107.71-109.834 123.806zM903.056 735.706c-59.427 65.971-147.148 91.086-228.157 73.928v0c-18.746-4.067-30.598-22.458-26.529-41.031 4.067-18.746 22.286-30.598 41.031-26.529 57.658 12.203 119.914-5.659 162.186-52.53s53.768-110.718 35.549-166.606v0c-5.837-18.216 4.067-37.671 22.286-43.685 18.216-5.837 37.671 4.067 43.685 22.286v0.174c25.468 78.174 9.375 168.019-50.052 233.99zM811.617 653.113c-29.005 32.191-71.802 44.394-111.069 35.902-16.093-3.358-26.353-19.457-22.99-35.549 3.537-16.093 19.457-26.353 35.372-22.816v0c19.279 4.067 40.148-1.945 54.298-17.51 14.15-15.74 18.040-37.141 11.848-55.889v0c-4.951-15.563 3.537-32.542 19.279-37.671 15.74-4.951 32.542 3.537 37.671 19.279 12.382 38.379 4.599 82.243-24.407 114.255zM447.987 313.004c-5.306-9.024-16.802-13.266-25.823-9.549-9.024 3.537-11.673 13.795-6.544 22.458 5.306 8.666 16.449 12.912 25.294 9.549 8.842-3.181 12.025-13.266 7.075-22.458zM400.055 251.806c-14.504-23.169-45.632-33.251-68.979-22.639-22.99 10.434-29.887 37.319-15.389 59.957 14.324 22.458 44.394 32.542 67.563 22.816 23.523-10.079 31.128-36.788 16.802-60.131zM454.526 415.581c-71.275 18.57-151.926-16.978-182.878-79.766-31.656-64.024-1.061-135.302 70.921-158.649 74.637-24.055 162.716 12.912 193.312 81.89 30.243 67.74-7.427 137.243-81.359 156.527z" />
<glyph unicode="&#xe901;" glyph-name="renren" d="M444.388 842.696c-187.888-31.626-331.213-195.050-331.213-391.972 0-97.839 35.519-187.42 94.098-256.743 139.118 67.306 236.49 219.663 237.117 397.114v251.607zM579.612 842.696c187.888-31.626 331.213-195.050 331.213-391.972 0-97.839-35.519-187.42-94.098-256.743-139.118 67.306-236.49 219.663-237.117 397.114v251.607zM510.6 350.397c-24.773-102.51-98.772-190.064-190.848-248.329 56.706-30.999 121.678-48.759 190.848-48.759s134.135 17.76 190.848 48.759c-92.075 58.266-166.078 145.825-190.848 248.329z" />
<glyph unicode="&#xe902;" glyph-name="arrow-forward" d="M596.149 800.001c-13.35 0-26.698-5.059-36.868-15.229-10.17-10.22-15.279-23.573-15.279-36.922v-133.446c-234.666-25.971-417.186-224.707-417.186-466.261v-52.151c117.074 178.503 273.781 204.42 417.186 208.021v-129.796c0-13.299 5.112-26.698 15.279-36.868s23.52-15.279 36.868-15.279 26.698 5.112 36.868 15.279l328.167 323.684-328.167 323.738c-10.17 10.17-23.52 15.229-36.868 15.229z" />
<glyph unicode="&#xe903;" glyph-name="lnr-bookmark" d="M774.742 0.635c-6.261 0-12.389 2.717-16.64 7.66l-246.1 287.131-246.1-287.131c-5.956-6.96-15.635-9.456-24.219-6.305s-14.316 11.384-14.316 20.536v788.209c0 12.084 9.812 21.896 21.896 21.896h525.473c12.084 0 21.896-9.812 21.896-21.896v-788.209c0-9.152-5.692-17.34-14.316-20.536-2.496-0.923-5.032-1.36-7.579-1.36zM512.002 350.949c6.392 0 12.48-2.8 16.64-7.66l224.204-261.599v707.109h-481.688v-707.109l224.204 261.599c4.16 4.86 10.248 7.66 16.64 7.66z" />
<glyph unicode="&#xe904;" glyph-name="lnr-chevron-up" d="M30.452 219.891c0-6.489 2.484-12.978 7.402-17.947 9.886-9.886 25.957-9.886 35.842 0l438.323 438.323 438.323-438.323c9.886-9.886 25.957-9.886 35.842 0s9.886 25.957 0 35.842l-456.271 456.271c-9.886 9.886-25.957 9.886-35.842 0l-456.271-456.271c-4.968-4.968-7.402-11.457-7.402-17.947z" />
<glyph unicode="&#xe905;" glyph-name="lnr-chevron-left" d="M739.353-31.95c6.467 0 12.935 2.475 17.888 7.377 9.854 9.854 9.854 25.871 0 35.723l-436.869 436.869 436.869 436.869c9.854 9.854 9.854 25.871 0 35.723s-25.871 9.854-35.723 0l-454.754-454.754c-9.854-9.854-9.854-25.871 0-35.723l454.754-454.754c4.952-4.952 11.418-7.377 17.888-7.377z" />
<glyph unicode="&#xe906;" glyph-name="lnr-chevron-down" d="M30.452 628.109c0 6.489 2.484 12.978 7.402 17.947 9.886 9.886 25.957 9.886 35.842 0l438.323-438.323 438.323 438.323c9.886 9.886 25.957 9.886 35.842 0s9.886-25.957 0-35.842l-456.271-456.271c-9.886-9.886-25.957-9.886-35.842 0l-456.271 456.271c-4.968 4.968-7.402 11.457-7.402 17.947z" />
<glyph unicode="&#xe907;" glyph-name="lnr-chevron-right" d="M284.647-31.95c-6.467 0-12.935 2.475-17.888 7.377-9.854 9.854-9.854 25.871 0 35.723l436.869 436.869-436.869 436.869c-9.854 9.854-9.854 25.871 0 35.723s25.871 9.854 35.723 0l454.754-454.754c9.854-9.854 9.854-25.871 0-35.723l-454.754-454.754c-4.952-4.952-11.418-7.377-17.888-7.377z" />
<glyph unicode="&#xe908;" glyph-name="attach-file" d="M657.534 665.872h54.466v-417.020c0-110.637-88.512-200.851-199.149-200.851s-200.851 90.212-200.851 200.851v452.763c0 80 66.385 146.385 146.385 146.385s144.682-66.385 144.682-146.385v-381.277c0-49.362-40.851-90.212-90.212-90.212s-91.912 40.851-91.912 90.212v345.534h54.466v-345.534c0-20.426 17.020-35.743 37.446-35.743s35.743 15.318 35.743 35.743v381.277c0 49.362-40.851 91.912-90.212 91.912s-91.912-42.554-91.912-91.912v-452.763c0-80 66.385-146.385 146.385-146.385s144.682 66.385 144.682 146.385v417.020z" />
<glyph unicode="&#xe909;" glyph-name="stop2" d="M128 832h768v-768h-768v768z" />
<glyph unicode="&#xe90a;" glyph-name="pause" d="M622.82 832h219.060v-768h-219.060v768zM182.121 64v768h219.060v-768h-219.060z" />
<glyph unicode="&#xe90b;" glyph-name="paper-plane" d="M94.741 830.555l160.967-638.846 312.587 99.649-278.942 340.028 359.972-315.659 292.313 91.463-846.895 423.365zM578.17 65.445v175.793l-102.887-30.574 102.887-145.215z" />
<glyph unicode="&#xe90c;" glyph-name="line-chart" horiz-adv-x="1170" d="M1042.012 162.363v-57.122h-914.022v685.518h57.122v-628.396h856.899zM984.885 719.348v-194.142c0-12.501-15.177-19.188-24.545-9.823l-54 54-282.509-282.509c-5.8-5.8-14.727-5.8-20.534 0l-103.991 103.991-185.657-185.657-85.689 85.689 261.087 261.087c5.8 5.8 14.727 5.8 20.534 0l103.991-103.991 207.081 207.081-54 54c-9.373 9.373-2.678 24.545 9.823 24.545h194.142c8.034 0 14.279-6.244 14.279-14.279z" />
<glyph unicode="&#xe90d;" glyph-name="pie-chart" horiz-adv-x="987" d="M449.743 421.561l248.869-248.869c-63.358-64.267-151.781-103.92-248.869-103.92-193.259 0-350.060 156.798-350.060 350.060s156.798 350.060 350.060 350.060v-347.321zM534.981 418.825h352.337c0-97.088-39.656-185.51-103.92-248.869zM858.14 477.165h-350.060v350.060c193.259 0 350.060-156.798 350.060-350.060z" />
<glyph unicode="&#xe90e;" glyph-name="area-chart" horiz-adv-x="1170" d="M1042.008 162.365v-57.123h-914.017v685.516h57.123v-628.393h856.896zM870.63 619.38l114.256-399.88h-742.638v257.069l199.946 257.069 257.069-257.069z" />
<glyph unicode="&#xe90f;" glyph-name="bar-chart" horiz-adv-x="1170" d="M413.627 448v-228.502h-114.257v228.502h114.257zM585.006 676.502v-457.014h-114.257v457.014h114.257zM1042.014 162.365v-57.122h-914.018v685.515h57.122v-628.393h856.895zM756.385 562.257v-342.758h-114.257v342.758h114.257zM927.764 733.635v-514.137h-114.257v514.137h114.257z" />
<glyph unicode="&#xe910;" glyph-name="favorite-o" d="M515.659 166.086c186.746 168.441 309.418 280.12 309.418 393.635 0 78.728-58.587 135.487-137.316 135.487-60.416 0-119.004-38.445-139.146-91.544h-73.232c-20.142 53.097-78.728 91.544-139.146 91.544-78.728 0-137.316-56.757-137.316-135.487 0-113.515 122.67-225.196 309.418-393.635l3.659-3.659zM687.761 773.934c120.836 0 214.212-93.374 214.212-214.212 0-148.301-131.82-267.305-333.219-450.392l-56.757-51.263-56.757 49.431c-201.393 183.088-333.219 303.92-333.219 452.222 0 120.836 93.374 214.212 214.212 214.212 67.743 0 133.654-32.956 175.761-82.387 42.113 49.431 108.018 82.387 175.761 82.387z" />
<glyph unicode="&#xe911;" glyph-name="favorite" d="M512 58.066l-56.757 51.263c-201.394 183.088-333.219 302.092-333.219 450.393 0 120.836 93.374 214.212 214.212 214.212 67.743 0 133.655-32.957 175.762-82.388 42.112 49.431 108.019 82.388 175.762 82.388 120.836 0 214.212-93.374 214.212-214.212 0-148.301-131.82-269.135-333.219-452.223z" />
<glyph unicode="&#xe912;" glyph-name="sort-default" horiz-adv-x="658" d="M617.143 338.286c0-9.714-4-18.857-10.857-25.714l-256-256c-6.857-6.857-16-10.857-25.714-10.857s-18.857 4-25.714 10.857l-256 256c-6.857 6.857-10.857 16-10.857 25.714 0 20 16.571 36.571 36.571 36.571h512c20 0 36.571-16.571 36.571-36.571zM617.143 557.714c0-20-16.571-36.571-36.571-36.571h-512c-20 0-36.571 16.571-36.571 36.571 0 9.714 4 18.857 10.857 25.714l256 256c6.857 6.857 16 10.857 25.714 10.857s18.857-4 25.714-10.857l256-256c6.857-6.857 10.857-16 10.857-25.714z" />
<glyph unicode="&#xe913;" glyph-name="unlock" horiz-adv-x="951" d="M856.328 594.492v-117.196c0-16.024-13.276-29.298-29.298-29.298h-29.298c-16.024 0-29.298 13.276-29.298 29.298v117.196c0 64.548-52.644 117.196-117.196 117.196s-117.196-52.644-117.196-117.196v-87.894h43.947c24.261 0 43.947-19.686 43.947-43.947v-263.688c0-24.261-19.686-43.947-43.947-43.947h-439.481c-24.261 0-43.947 19.686-43.947 43.947v263.688c0 24.261 19.686 43.947 43.947 43.947h307.635v87.894c0 113.073 92.017 205.090 205.090 205.090s205.090-92.017 205.090-205.090z" />
<glyph unicode="&#xe914;" glyph-name="unlock-alt" horiz-adv-x="658" d="M543.399 505.141c23.662 0 42.857-19.195 42.857-42.857v-257.143c0-23.662-19.195-42.857-42.857-42.857h-428.571c-23.662 0-42.857 19.195-42.857 42.857v257.143c0 23.662 19.195 42.857 42.857 42.857h14.284v142.855c0 110.267 89.733 200.002 200.002 200.002s200.002-89.733 200.002-200.002c0-15.626-12.947-28.573-28.573-28.573h-28.573c-15.626 0-28.573 12.947-28.573 28.573 0 62.947-51.338 114.288-114.288 114.288s-114.288-51.338-114.288-114.288v-142.855h328.573z" />
<glyph unicode="&#xe915;" glyph-name="sort-up" horiz-adv-x="658" d="M617.143 285.714c0-20-16.571-36.571-36.571-36.571h-512c-20 0-36.571 16.571-36.571 36.571 0 9.714 4 18.857 10.857 25.714l256 256c6.857 6.857 16 10.857 25.714 10.857s18.857-4 25.714-10.857l256-256c6.857-6.857 10.857-16 10.857-25.714z" />
<glyph unicode="&#xe916;" glyph-name="sort-down" horiz-adv-x="658" d="M617.143 530.286c0-9.714-4-18.857-10.857-25.714l-256-256c-6.857-6.857-16-10.857-25.714-10.857s-18.857 4-25.714 10.857l-256 256c-6.857 6.857-10.857 16-10.857 25.714 0 20 16.571 36.571 36.571 36.571h512c20 0 36.571-16.571 36.571-36.571z" />
<glyph unicode="&#xe917;" glyph-name="lock" horiz-adv-x="658" d="M206.107 509.507h246.028v92.258c0 67.751-55.258 123.014-123.014 123.014s-123.014-55.258-123.014-123.014v-92.258zM605.898 463.378v-276.779c0-25.467-20.663-46.129-46.129-46.129h-461.299c-25.467 0-46.129 20.663-46.129 46.129v276.779c0 25.467 20.663 46.129 46.129 46.129h15.378v92.258c0 118.207 97.065 215.272 215.272 215.272s215.272-97.065 215.272-215.272v-92.258h15.378c25.467 0 46.129-20.663 46.129-46.129z" />
<glyph unicode="&#xe918;" glyph-name="star-full" d="M939.884 544.065l-295.655 42.963-132.225 267.912-132.221-267.912-295.659-42.963 213.94-208.543-50.502-294.462 264.447 139.028 264.447-139.028-50.504 294.462 213.942 208.543z" />
<glyph unicode="&#xe919;" glyph-name="star-half" d="M939.884 544.065l-295.655 42.963-132.225 267.912-132.221-267.912-295.659-42.963 213.94-208.543-50.502-294.462 264.447 139.028 264.447-139.028-50.504 294.462 213.942 208.543zM512 246.177l-0.787-0.416 0.787 476.997 93.38-189.201 208.791-30.339-151.088-147.272 35.668-207.95-186.747 98.18z" />
<glyph unicode="&#xe91a;" glyph-name="star-empty" d="M939.884 544.065l-295.655 42.963-132.225 267.912-132.221-267.912-295.659-42.963 213.94-208.543-50.502-294.462 264.447 139.028 264.447-139.028-50.504 294.462 213.942 208.543zM512 246.177l-186.747-98.18 35.666 207.95-151.086 147.272 208.795 30.339 93.377 189.201 93.38-189.201 208.791-30.339-151.088-147.272 35.668-207.95-186.747 98.18z" />
<glyph unicode="&#xe91b;" glyph-name="share" d="M768 274c68 0 124-56 124-124s-56-126-124-126-124 58-124 126c0 10 0 20 2 28l-302 176c-24-22-54-34-88-34-70 0-128 58-128 128s58 128 128 128c34 0 64-12 88-34l300 174c-2 10-4 20-4 30 0 70 58 128 128 128s128-58 128-128-58-128-128-128c-34 0-64 14-88 36l-300-176c2-10 4-20 4-30s-2-20-4-30l304-176c22 20 52 32 84 32z" />
<glyph unicode="&#xe91c;" glyph-name="android" d="M624 708.749v38.5h-36.751v-38.5h36.751zM436.751 708.749v38.5h-36.751v-38.5h36.751zM643.251 815.5c56-40.251 92.751-106.751 92.751-180.251h-448c0 73.5 35 140 91 180.251l-49 49c-7 7-7 19.251 0 26.251s19.251 7 26.251 0l56-56c29.751 15.751 64.751 24.5 99.751 24.5s68.251-8.751 98-24.5l56 56c7 7 19.251 7 26.251 0s7-19.251 0-26.251zM828.751 596.749c31.5 0 56-24.5 56-56v-260.751c0-31.5-24.5-56-56-56s-56 24.5-56 56v260.751c0 31.5 24.5 56 56 56zM195.251 596.749c31.5 0 56-24.5 56-56v-260.751c0-31.5-24.5-56-56-56s-56 24.5-56 56v260.751c0 31.5 24.5 56 56 56zM288 224v372.75h448v-372.75c0-21-15.751-36.751-36.751-36.751h-38.5v-131.251c0-31.5-24.5-56-56-56s-56 24.5-56 56v131.251h-73.5v-131.251c0-31.5-24.5-56-56-56s-56 24.5-56 56v131.251h-38.5c-21 0-36.751 15.751-36.751 36.751z" />
<glyph unicode="&#xe91d;" glyph-name="mobile" d="M670.426 209.43v557.286h-357.856v-557.286h357.856zM491.498 51.004c33.547 0 59.642 26.094 59.642 59.642s-26.094 59.642-59.642 59.642-59.642-26.094-59.642-59.642 26.094-59.642 59.642-59.642zM651.788 886c54.051 0 98.783-46.596 98.783-100.646v-674.706c0-54.051-44.732-100.646-98.783-100.646h-318.714c-54.051 0-98.783 46.596-98.783 100.646v674.706c0 54.051 44.732 100.646 98.783 100.646h318.714z" />
<glyph unicode="&#xe91e;" glyph-name="image-format-right" d="M0 687.3h335.1v-31.2h-335.1v31.2zM120.6 549.5h214.5v-31.2h-214.5c0 0.1 0 31.2 0 31.2zM0 418.9h335.1v-31.2h-335.1v31.2zM120.6 281.4h214.5v-31.2h-214.5c0 0.1 0 31.2 0 31.2zM1000.6 695.1h-540.2c-12.8 0-23.4-10.6-23.4-23.4v-414.3c0-12.8 10.6-23.4 23.4-23.4h540.2c12.8 0 23.4 10.6 23.4 23.4v414.3c0 12.8-10.3 23.4-23.4 23.4v0zM977.2 280.5h-493.4v367.8h493.5l-0.1-367.8zM620 386.8h221.3c2.2 0 4.4 1.2 5.3 3.1 1.2 1.9 1.2 4.4 0 6.2l-82.6 143.1c-1.2 1.9-3.1 3.1-5.3 3.1s-4.4-1.2-5.3-3.1l-45.2-78.2-22.8 39.3c-1.2 1.9-3.1 3.1-5.3 3.1s-4.4-1.2-5.3-3.1l-60.2-104.1c-1.2-1.9-1.2-4.4 0-6.2 1-2 2.9-3.2 5.4-3.2v0z" />
<glyph unicode="&#xe91f;" glyph-name="format-image-left" d="M688.9 677.3h335.1v-31.2h-335.1v31.2zM691.1 539.5h214.5v-31.2h-214.5v31.2zM688.9 408.9h335.1v-31.2h-335.1v31.2zM691.1 271.4h214.5v-31.2h-214.5v31.2zM563.6 223.7c12.8 0 23.4 10.6 23.4 23.4v414.6c0 12.8-10.6 23.4-23.4 23.4h-540.2c-12.8 0-23.4-10.6-23.4-23.4v-414.3c0-12.8 10.6-23.4 23.4-23.4l540.2-0.3zM46.8 638.3h493.5v-367.5h-493.5v367.5zM327 529.2c-1.2 1.9-3.1 3.1-5.3 3.1s-4.4-1.2-5.3-3.1l-45.5-78.2-22.8 39.3c-1.2 1.9-3.1 3.1-5.3 3.1s-4.4-1.2-5.3-3.1l-60.2-104.1c-1.2-1.9-1.2-4.4 0-6.2s3.1-3.1 5.3-3.1h221.4c2.2 0 4.4 1.2 5.3 3.1 1.2 1.9 1.2 4.4 0 6.2l-82.3 143z" />
<glyph unicode="&#xe920;" glyph-name="baidu" d="M341.865 540.512c4.338-62.016-29.273-114.887-75.099-118.115-45.812-3.209-86.472 44.448-90.81 106.482-4.338 62.016 29.273 114.902 75.099 118.121 45.816 3.209 86.482-44.466 90.81-106.487zM657.427 797.606c-44.516 11.358-93.024-28.284-108.331-88.533-15.361-60.25 8.292-118.294 52.817-129.653 44.495-11.348 93.034 28.277 108.335 88.533 19.94 78.418-42.154 126.94-52.822 129.653zM761.785 594.526c-46.818-0.696-83.968-45.225-82.937-114.207 1.020-68.972 39.749-100.419 86.62-99.718 46.793 0.696 83.962 33.261 82.948 102.257-1.356 89.776-75.425 111.831-86.628 111.668zM422.55 812.8c-44.555 0-80.67-49.938-80.67-111.515s36.115-111.491 80.67-111.491 80.677 49.914 80.677 111.491c0 61.577-36.125 111.515-80.677 111.515zM412.239 466.481c-25.738-36.958-54.922-73.039-111.565-120.32-56.646-47.275-80.677-79.916-80.677-128.045 0-48.12 27.462-128.045 105.565-128.045s115.859 17.195 177.658 17.195 103.001-24.067 181.093-24.067c78.106 0 110.722 73.907 110.722 122.031 0 48.129-13.554 75.365-76.13 130.29-40.089 35.233-74.079 63.919-127.282 137.83-26.315 36.544-56.646 41.247-88.395 41.247-31.762 0-65.235-11.171-90.988-48.114z" />
<glyph unicode="&#xe921;" glyph-name="linkedin" d="M872.336 370.11v-266.43h-154.462v248.589c0 62.45-22.342 105.067-78.239 105.067-42.684 0-68.087-28.721-79.258-56.508-4.079-9.932-5.126-23.758-5.126-37.659v-259.489h-154.521c0 0 2.080 421.029 0 464.655h154.497v-65.861c-0.313-0.497-0.72-1.023-1.018-1.505h1.018v1.505c20.521 31.614 57.19 76.772 139.243 76.772 101.653 0 177.871-66.415 177.871-209.14zM239.097 792.32c-52.858 0-87.433-34.673-87.433-80.266 0-44.601 33.576-80.324 85.38-80.324h1.033c53.881 0 87.393 35.713 87.393 80.324-1.018 45.593-33.512 80.266-86.375 80.266zM160.843 103.68h154.457v464.655h-154.457v-464.655z" />
<glyph unicode="&#xe922;" glyph-name="blogger-square" d="M837 848h-650c-41.25 0-75-33.75-75-75v-650c0-41.25 33.75-75 75-75h650c41.25 0 75 33.75 75 75v650c0 41.25-33.75 75-75 75zM812 341.75c0-107.033-87.033-193.75-194.842-193.75h-210c-107.813 0-195.158 86.717-195.158 193.75v212.5c0 107.033 87.342 193.75 195.158 193.75h98.283c107.813 0 194.063-80.467 194.063-187.5 1.408-20 19.533-37.5 40-37.5h33.592c21.563 0 38.75-22.658 38.75-44.063v-137.188zM662 348c0-27.5-22.5-50-50-50h-200c-27.5 0-50 22.5-50 50v0c0 27.5 22.5 50 50 50h200c27.5 0 50-22.5 50-50v0zM562 548c0-27.5-22.5-50-50-50h-100c-27.5 0-50 22.5-50 50v0c0 27.5 22.5 50 50 50h100c27.5 0 50-22.5 50-50v0z" />
<glyph unicode="&#xe923;" glyph-name="blogger" d="M818.486 536h-39.466c-24.176 0-45.368 20.449-47.020 44v0c0.004 125.588-101.238 220-227.692 220h-115.38c-126.372 0-228.836-101.75-228.926-227.336v-249.428c0-125.574 102.554-227.246 228.924-227.246h246.414c126.468 0 228.66 101.672 228.66 227.246v161.141c0 25.092-20.24 51.622-45.514 51.622zM380 624h132c24.2 0 44-19.8 44-44s-19.8-44-44-44h-132c-24.2 0-44 19.8-44 44s19.8 44 44 44zM644 272h-264c-24.2 0-44 19.8-44 44s19.8 44 44 44h264c24.2 0 44-19.8 44-44s-19.8-44-44-44z" />
<glyph unicode="&#xe924;" glyph-name="pinkoi" d="M578.933 827.674c-177.705 0-321.885-144.063-321.885-321.885 0-62.009 17.583-119.914 47.942-169.030-26.024 0.704-54.624 1.406-82.755 2.228 0 0-86.157 6.448-98.933-70.567 0 0-6.683-104.207 114.992-76.193-44.66-117.22 60.251-123.9 60.251-123.9 80.296 3.516 82.99 88.734 82.99 88.734 3.164 29.775 6.448 60.368 9.26 87.563 52.866-38.095 117.804-60.72 188.019-60.72 177.823 0 321.885 144.063 321.885 321.885s-144.063 321.885-321.768 321.885zM584.207 312.962c-31.18 0-60.603 7.267-86.858 20.045-15.238 7.032-32.12 10.9-49.934 10.9-31.063 0-59.314-11.839-80.648-31.298v0.117c23.796 21.803 38.799 53.219 38.799 88.032 0 15.121-2.815 29.422-7.854 42.785l0.235-0.235c-7.736 21.216-11.957 44.073-11.957 67.987 0 109.484 88.734 198.217 198.217 198.217s198.217-88.734 198.217-198.217c0-109.601-88.734-198.335-198.217-198.335zM611.637 558.068c-39.386 78.887-89.321 25.906-89.321 25.906-34.579-41.963 8.206-86.040 8.206-86.040 38.682-44.426 80.413-75.606 80.997-76.193 0.352-0.235 0.47 0 0.47 0 0.47 0.47 42.198 31.767 80.997 76.193 0 0 42.785 44.073 8.089 86.040-0.117 0-49.934 52.984-89.438-25.906z" />
<glyph unicode="&#xe925;" glyph-name="gallery" d="M363.52 187.904l148.48-169.984 148.48 171.008 220.16 44.032-71.68 215.040 71.68 215.040-220.16 45.056-148.48 169.984-148.48-169.984-220.16-45.056 71.68-215.040-71.68-215.040 220.16-45.056zM247.808 350.72v0l35.84 108.544 171.008-31.744-140.288-166.912-91.136 18.432 24.576 71.68zM512 111.104l-123.904 142.336 112.64 134.144 72.704-205.824-61.44-70.656zM617.472 242.176l-58.368 165.888 74.752-13.312 137.216-25.6 29.696-89.088-183.296-37.888zM776.192 545.28v0l-35.84-108.544-171.008 31.744 50.176 59.392 90.112 106.496 91.136-18.432-24.576-70.656zM512 784.896l49.152-56.32 74.752-84.992-112.64-134.144-4.096 10.24-68.608 194.56 61.44 70.656zM406.528 653.824l58.368-165.888-211.968 38.912-29.696 89.088 183.296 37.888z" />
<glyph unicode="&#xe926;" glyph-name="channel" d="M877.912 288.776c-48.992 27.56-108.704 19.904-148.504-19.904l-58.176 33.68c6.128 16.84 9.184 36.744 9.184 56.648 0 82.672-59.712 151.568-137.792 165.352v68.896c52.056 13.776 91.864 61.24 91.864 117.888 0 67.368-55.12 122.48-122.48 122.48s-122.48-55.12-122.48-122.48c0-56.648 39.808-104.112 91.864-117.888v-68.896c-78.080-13.776-137.792-82.672-137.792-165.352 0-19.904 3.064-38.272 9.184-56.648l-58.176-33.68c-38.272 38.272-97.984 48.992-148.504 19.904-58.176-33.68-78.080-108.704-44.4-166.88 30.624-55.12 105.64-79.616 166.88-44.4 48.992 29.088 70.424 85.736 56.648 137.792l59.712 33.68c30.624-36.744 76.552-59.712 128.608-59.712s97.984 22.968 128.608 59.712l59.712-33.68c-13.776-52.056 7.656-110.232 56.648-137.792 58.176-33.68 133.2-15.312 166.88 44.4 30.624 58.176 10.72 133.2-47.464 166.88zM237.952 129.552c-18.376-12.248-61.24-13.776-84.208 22.968-16.84 29.088-6.128 67.368 22.968 84.208 33.68 16.84 67.368 4.592 84.208-22.968 16.84-29.088 6.128-67.368-22.968-84.208zM450.76 711.336c0 33.68 27.56 61.24 61.24 61.24s61.24-27.56 61.24-61.24-27.56-61.24-61.24-61.24-61.24 27.56-61.24 61.24zM512 252.032c-59.712 0-107.168 47.464-107.168 107.168s47.464 107.168 107.168 107.168 107.168-47.464 107.168-107.168-47.464-107.168-107.168-107.168zM870.256 152.52c-13.776-26.024-48.992-39.808-84.208-22.968-29.088 16.84-39.808 55.12-22.968 84.208 16.84 27.56 50.52 39.808 84.208 22.968 29.088-16.84 39.808-55.12 22.968-84.208z" />
<glyph unicode="&#xe927;" glyph-name="shop" horiz-adv-x="1040" d="M200.15 752h640c19.2 0 32 12.8 32 32v32c0 19.2-12.8 32-32 32h-640c-19.2 0-32-12.8-32-32v-32c0-19.2 16-32 32-32zM926.55 496l-54.4 192c-6.4 19.2-12.8 32-32 32h-640c-19.2 0-25.6-12.8-32-32l-54.4-192c0 0 0-32 32-32 12.8 0 16 0 22.4 0v-384c0-19.2 12.8-32 32-32h416v320h160v-320h64c19.2 0 32 12.8 32 32v384c9.6 0 12.8 0 25.6 0 32 0 28.8 32 28.8 32zM520.15 144h-256v224h256v-224z" />
<glyph unicode="&#xe928;" glyph-name="reading" d="M920.184 717.944l-58.846 28.022c-95.274 44.834-209.23 44.834-304.504 0l-44.834-21.484-44.834 21.484c-95.274 44.834-209.23 44.834-304.504 0l-58.846-28.022c-10.274-4.67-16.814-14.010-16.814-25.22v-549.228c0-15.879 14.010-28.022 29.89-28.022 4.67 0 9.34 0.934 14.010 2.802l58.846 28.022c78.461 37.362 170.932 37.362 249.394 0l58.846-28.022c0.934 0 1.868-0.934 2.802-0.934l2.802-0.934c1.868 0 2.802-0.934 4.67-0.934h6.538c2.802 0 4.67 0.934 7.472 1.868 0.934 0 1.868 0.934 2.802 0.934l58.846 28.022c78.461 37.362 170.932 37.362 249.394 0l58.846-28.022c14.945-7.472 33.626-1.868 41.098 11.208 2.802 3.736 3.736 8.406 3.736 13.076v550.162c0 11.208-6.538 20.55-16.814 25.22zM876.284 190.2l-14.945 6.538c-95.274 44.834-209.23 44.834-304.504 0l-14.945-6.538v485.712l42.032 19.616c78.461 37.362 170.932 37.362 249.394 0l42.032-19.616v-485.712z" />
<glyph unicode="&#xe929;" glyph-name="qrcode" d="M368 784h-192v-192h192v192zM416 832v0-288h-288v288h288zM224 736h96v-96h-96zM848 784h-192v-192h192v192zM896 832v0-288h-288v288h288zM704 736h96v-96h-96zM368 304h-192v-192h192v192zM416 352v0-288h-288v288h288zM224 256h96v-96h-96zM464 832h48v-48h-48zM512 784h48v-48h-48zM464 736h48v-48h-48zM512 688h48v-48h-48zM464 640h48v-48h-48zM512 592h48v-48h-48zM464 544h48v-48h-48zM464 448h48v-48h-48zM512 400h48v-48h-48zM464 352h48v-48h-48zM512 304h48v-48h-48zM464 256h48v-48h-48zM512 208h48v-48h-48zM464 160h48v-48h-48zM512 112h48v-48h-48zM848 448h48v-48h-48zM176 448h48v-48h-48zM224 496h48v-48h-48zM128 496h48v-48h-48zM320 496h48v-48h-48zM368 448h48v-48h-48zM416 496h48v-48h-48zM560 448h48v-48h-48zM608 496h48v-48h-48zM656 448h48v-48h-48zM704 496h48v-48h-48zM752 448h48v-48h-48zM800 496h48v-48h-48zM848 352h48v-48h-48zM560 352h48v-48h-48zM608 400h48v-48h-48zM656 352h48v-48h-48zM752 352h48v-48h-48zM800 400h48v-48h-48zM848 256h48v-48h-48zM560 256h48v-48h-48zM608 304h48v-48h-48zM704 304h48v-48h-48zM752 256h48v-48h-48zM800 304h48v-48h-48zM848 160h48v-48h-48zM608 208h48v-48h-48zM656 160h48v-48h-48zM704 208h48v-48h-48zM752 160h48v-48h-48zM608 112h48v-48h-48zM704 112h48v-48h-48zM800 112h48v-48h-48z" />
<glyph unicode="&#xe92a;" glyph-name="link-horizontal" d="M726 662c118 0 212-96 212-214s-94-214-212-214h-172v82h172c72 0 132 60 132 132s-60 132-132 132h-172v82h172zM342 406v84h340v-84h-340zM166 448c0-72 60-132 132-132h172v-82h-172c-118 0-212 96-212 214s94 214 212 214h172v-82h-172c-72 0-132-60-132-132z" />
<glyph unicode="&#xe92b;" glyph-name="wifi-lock" d="M650.148 350.376v-103.15l-138.148-173.146-454.968 571.012c16.578 11.052 191.566 156.568 454.968 156.568s438.39-145.516 454.968-156.568l-81.046-103.15c-11.052 3.684-23.946 3.684-40.524 3.684-110.518 0-195.25-84.73-195.25-195.25zM904.34 291.432v58.944c0 31.314-27.63 58.944-58.944 58.944s-58.944-27.63-58.944-58.944v-58.944h117.886zM944.864 291.432c20.262 0 38.682-20.262 38.682-40.524v-156.568c0-20.262-18.42-38.682-38.682-38.682h-197.092c-20.262 0-38.682 18.42-38.682 38.682v156.568c0 20.262 18.42 40.524 38.682 40.524v58.944c0 55.26 42.366 97.624 97.624 97.624s99.466-42.366 99.466-97.624v-58.944z" />
<glyph unicode="&#xe92c;" glyph-name="wifi" horiz-adv-x="1280" d="M640 400.002c79.403 0 151.4-32.3 203.551-84.451l-67.851-67.851c-34.765 34.765-82.769 56.299-135.7 56.299s-100.936-21.535-135.7-56.299l-67.851 67.851c52.151 52.151 124.148 84.451 203.551 84.451zM300.589 451.412c90.661 90.661 211.199 140.587 339.411 140.587s248.753-49.927 339.411-140.587l-67.882-67.882c-72.528 72.526-168.958 112.468-271.53 112.468-102.574 0-199.002-39.942-271.528-112.47l-67.882 67.882zM901.586 731.174c80.025-33.848 151.885-82.295 213.585-143.997v0l-67.882-67.882c-108.79 108.79-253.438 168.704-407.293 168.704s-298.502-59.915-407.293-168.704l-67.882 67.882c61.702 61.7 133.562 110.147 213.587 143.995 82.876 35.055 170.887 52.826 261.586 52.826s178.708-17.776 261.586-52.826zM592.002 159.998c0 26.512 21.493 47.998 47.998 47.998s47.998-21.493 47.998-47.998c0-26.512-21.493-47.998-47.998-47.998s-47.998 21.493-47.998 47.998z" />
<glyph unicode="&#xe92d;" glyph-name="share-o" d="M741.819 333.092c-42.373 0-80.914-17.235-108.686-45.246l-203.486 118.5c3.832 13.167 5.746 27.292 5.746 41.654s-1.914 28.487-5.746 41.654l203.486 118.74c27.769-28.008 66.313-45.486 108.686-45.486 84.506 0 153.213 68.706 153.213 153.213s-68.706 153.213-153.213 153.213-153.213-68.706-153.213-153.213c0-14.365 1.914-28.487 5.746-41.654l-203.486-118.74c-27.769 28.008-66.313 45.486-108.686 45.486-84.506 0-153.213-68.706-153.213-153.213s68.706-153.213 153.213-153.213c42.613 0 80.914 17.475 108.925 45.486l203.486-118.5c-3.832-13.406-5.746-27.292-5.746-41.894 0-84.506 68.706-153.213 153.213-153.213s153.213 68.706 153.213 153.213-68.946 153.213-153.452 153.213zM741.819 792.727c42.133 0 76.606-34.473 76.606-76.606s-34.473-76.606-76.606-76.606c-27.532 0-51.708 14.602-65.354 36.627-0.24 0.479-0.479 0.959-0.719 1.435s-0.719 0.959-0.959 1.435c-5.986 11.013-9.575 23.7-9.575 37.106 0 42.133 34.473 76.606 76.606 76.606zM282.181 371.394c-42.133 0-76.606 34.473-76.606 76.606s34.473 76.606 76.606 76.606c27.532 0 51.708-14.602 65.354-36.627 0.24-0.479 0.479-0.959 0.719-1.435s0.719-0.959 0.959-1.435c5.986-11.013 9.575-23.7 9.575-37.106s-3.592-26.094-9.575-37.106c-0.24-0.479-0.719-0.959-0.959-1.435s-0.479-0.959-0.719-1.435c-13.646-22.025-37.825-36.627-65.354-36.627zM741.819 103.273c-42.133 0-76.606 34.473-76.606 76.606 0 12.448 3.113 24.419 8.379 34.713 0.959 1.198 1.675 2.394 2.633 3.832 0.719 1.198 1.435 2.633 1.914 3.832 13.646 20.587 37.106 34.233 63.679 34.233 42.133 0 76.606-34.473 76.606-76.606s-34.473-76.606-76.606-76.606z" />
<glyph unicode="&#xe92e;" glyph-name="star-circle" d="M685.239 201.615l-46.197 198.263 153.991 132.817-202.113 17.324-78.92 184.789-78.92-186.714-202.113-15.399 153.991-132.817-46.197-198.263 173.239 103.944zM512 858c227.136 0 410-182.864 410-410s-182.864-410-410-410-410 182.864-410 410 182.864 410 410 410z" />
<glyph unicode="&#xe92f;" glyph-name="favorite-thin" horiz-adv-x="1184" d="M778.552 799.16c-54.342 0-106.578-20.212-147.138-56.951-15.404-13.94-28.596-29.784-39.419-47.278-10.818 17.494-24.008 33.338-39.419 47.3-40.556 36.716-92.796 56.93-147.138 56.93-121.018 0-219.476-98.456-219.476-219.476 0-81.688 25.416-146.17 84.962-215.634 86.514-100.96 305.488-255.030 314.774-261.549 1.889-1.342 4.104-1.998 6.299-1.998s4.412 0.66 6.299 1.998c9.286 6.517 228.253 160.593 314.796 261.549 59.524 69.462 84.94 133.946 84.94 215.634 0 121.018-98.456 219.476-219.476 219.476zM896.432 378.32c-76.71-89.461-267.32-226.962-304.432-253.383-37.112 26.428-227.729 163.928-304.41 253.383-55.86 65.161-79.67 125.386-79.67 201.37 0 108.926 88.626 197.53 197.53 197.53 48.874 0 95.91-18.198 132.384-51.25 18.394-16.68 33.316-36.342 44.332-58.468 3.73-7.46 15.932-7.46 19.662 0 11.015 22.126 25.944 41.788 44.332 58.446 36.474 33.074 83.51 51.272 132.384 51.272 108.904 0 197.53-88.604 197.53-197.53 0-75.984-23.81-136.205-79.648-201.37z" />
<glyph unicode="&#xe930;" glyph-name="logout" d="M136.125 482.003c0-5.517 0-18.381 0-18.381s12.865 0 18.381 0h703.96l-262.834 262.834c14.706 14.706 5.517 5.517 25.734 25.734l295.923-294.085c3.675-3.675 12.865-12.865 12.865-12.865s-9.19-9.19-12.865-12.865l-295.923-294.085c-9.19 9.19-14.706 14.706-25.734 25.734l262.834 262.834h-722.342c0 0 0-12.865 0-18.381v-257.324c-9.19 0-27.571 0-36.761 0v588.167c5.517 0 22.055 0 36.761 0v-257.324z" />
<glyph unicode="&#xe931;" glyph-name="logout-line" d="M734.652 635.076l-32.137-33.282 130.838-130.838h-511.872v-45.91h511.872l-130.838-130.838 32.137-33.282 187.076 187.076zM596.928 149.6h-447.602v596.805h447.602v45.91h-493.512v-688.619h493.512z" />
<glyph unicode="&#xe932;" glyph-name="coins" d="M358.444 847.52c-80.5 0-153.339-16.35-207.040-43.2s-89.6-65.351-89.6-110.72c-0.663-157.843-0.32-330.372-0.32-491.52 0-45.128 35.824-83.527 89.6-110.401s126.824-43.199 207.36-43.199c69.457 0 132.972 12.368 183.68 32.959 39.941-21.125 85.474-32.959 133.76-32.959 158.23 0 286.72 128.49 286.72 286.72s-128.49 286.72-286.72 286.72c-6.99 0-13.934-0.467-20.8-0.959 0.32 52.159 0.32 31.679 0 72.639 0 45.369-35.899 83.869-89.6 110.72s-126.54 43.2-207.040 43.2zM358.444 826.72c77.851 0 148.009-15.924 198.080-40.96s78.4-58.352 78.4-92.16c0-33.807-28.329-67.123-78.4-92.16s-120.229-40.64-198.080-40.64-148.329 15.604-198.4 40.64c-50.071 25.037-78.080 58.353-78.080 92.16 0 33.808 28.009 67.124 78.080 92.16s120.549 40.96 198.4 40.96zM81.964 636.96c15.785-20.855 39.989-39.035 69.44-53.76 53.701-26.849 126.54-43.2 207.040-43.2 49.144 0 95.238 6.37 136 17.28-37.706-30.832-67.296-71.076-85.44-117.12-16.42-1.522-33.204-2.56-50.56-2.56-77.792 0-148.057 15.948-198.080 40.96s-78.4 58.106-78.4 92.159zM634.604 636.64v-17.6c-6.92-1.001-13.728-2.352-20.48-3.84 7.781 6.781 14.743 13.916 20.48 21.44zM675.884 601.44c147.161 0 266.24-119.078 266.24-266.24s-119.079-266.24-266.24-266.24c-147.162 0-266.24 119.079-266.24 266.24s119.078 266.24 266.24 266.24zM81.964 514.080c15.75-20.865 39.659-39.030 69.12-53.76 53.75-26.875 126.801-43.199 207.36-43.199 14.7 0 29.081 0.86 43.2 1.92-8.132-26.555-12.48-54.639-12.48-83.84 0-6.555 0.206-13.075 0.64-19.521-10.288-0.594-20.715-0.963-31.36-0.963-77.792 0-148.057 15.949-198.080 40.96-50.023 25.010-78.4 58.106-78.4 92.16zM81.964 391.2c15.75-20.865 39.659-39.030 69.12-53.76 53.75-26.874 126.801-43.199 207.36-43.199 11.421 0 22.547 0.338 33.6 0.963 4.985-35.566 16.477-69.054 33.28-99.2-21.459-2.703-43.696-4.159-66.88-4.159-77.792 0-148.057 15.949-198.080 40.96s-78.4 58.106-78.4 92.16zM81.964 268.32c15.75-20.865 39.659-39.030 69.12-53.76 53.75-26.875 126.801-43.199 207.36-43.199 27.213 0 53.394 2.195 78.4 5.76 21.798-32.878 50.105-61.067 83.2-82.56-45.374-16.011-101.226-25.6-161.6-25.6-77.768 0-148.029 15.948-198.080 40.96s-78.4 58.112-78.4 92.16z" />
<glyph unicode="&#xe933;" glyph-name="coin-dollar" d="M520.287 878.202c-238.586 0-432-193.414-432-432s193.414-432 432-432c238.586 0 432 193.414 432 432s-193.415 432-432 432zM520.287 100.602c-190.872 0-345.6 154.728-345.6 345.6s154.728 345.6 345.6 345.6c190.872 0 345.6-154.728 345.6-345.6s-154.728-345.6-345.6-345.6zM549.085 475v115.198h115.198v57.602h-115.198v57.602h-57.602v-57.602h-115.198v-230.402h115.198v-115.198h-115.198v-57.602h115.198v-57.602h57.602v57.602h115.2l-0.002 230.402h-115.198zM491.483 475h-57.602v115.198h57.602v-115.198zM606.689 302.2h-57.604v115.198h57.605v-115.198z" />
<glyph unicode="&#xe934;" glyph-name="pixnet" d="M247.114 277.425c3.387 8.644 5.351 18.652 5.351 29.118 0 0.573-0.007 1.142-0.017 1.712l0.002-0.086v21.533c-0.745 15.105-3.472 16.476-19.171 17.309-0.159 0-99.116 0-111.76 0.033l-0.12-0.033c-0.778 0-1.317 0.147-2.048 0.193-2.268-32.98-3.832-66.267-4.018-100.419 1.656-31.236 13.929-41.948 37.789-55.83 9.926-3.946 19.809-7.429 29.722-11.162v36.511c-0.034 0.35-0.052 0.756-0.052 1.165 0 3.579 1.442 6.823 3.779 9.179l-0.001-0.001c3.919 2.731 8.666 4.538 13.801 5.016l0.116 0.010c9.603 1.688 18.097 5.533 25.263 11.024l-0.138-0.101c10.446 8.857 18.045 20.783 21.414 34.38l0.094 0.451zM252.447 427.828v40.657c-0.745 15.139-3.552 16.483-19.006 17.354-15.918 0-78.62-0.073-94.159-0.073l-0.126 0.073c-1.36 0.102-2.619 0.325-3.832 0.657l0.14-0.033q-6.217-37.637-10.551-75.878c19.053 0.008 94.494 0.008 108.422 0.008 15.639 0.811 18.366 2.089 19.113 17.236zM233.337 549.392c15.639 0.813 18.366 2.108 19.113 17.189v43.638c0.013 0.198 0.019 0.426 0.019 0.656 0 2.902-1.105 5.546-2.915 7.532l0.009-0.010c-2.262 2.211-5.35 3.59-8.76 3.631h-1.279c-1.976-0.001-3.903-0.211-5.76-0.611l0.179 0.033c-17.142-3.346-49.226-8.934-72.867-13.21-5.056-19.566-9.538-39.175-13.73-58.852 21.78 0.035 71.981 0.035 85.989 0zM856.716 732.471c-163.327 65.857-352.498 106.337-550.459 111.49l-2.124 0.043c-43.384-0.998-68.562-16.185-78.959-42.738-17.076-42.074-31.897-83.782-44.862-125.49 23.768 3.407 46.479 6.726 52.387 7.983 19.643 4.896 18.91 6.679 19.751 20.876 0 6.054-0.035 12.67-0.035 19.165v22.968c-0.107 0.839-0.169 1.806-0.169 2.791 0 6.107 2.359 11.661 6.216 15.802l-0.013-0.013c4.406 3.196 9.923 5.111 15.886 5.111 1.086 0 2.159-0.065 3.214-0.188l-0.127 0.013c0.124 0 0.485 0.046 0.281 0h25.132c0.869 0.094 1.874 0.147 2.893 0.147 6.059 0 11.677-1.903 16.282-5.145l-0.091 0.061c3.878-4.115 6.261-9.675 6.261-15.795 0-0.981-0.062-1.949-0.18-2.9l0.013 0.114c0-6.791 0.080-23.687 0.080-30.705 0.558-7.543 1.77-7.596 6.674-8.117 4.202 0.238 8.141 0.977 11.881 2.162l-0.34-0.094c8.387 2.328 36.452 11.76 59.41 20.887 3.512 1.946 7.658 3.197 12.070 3.448l0.076 0.004c6.112-0.448 11.22-4.32 13.443-9.688l0.040-0.104c5.401-9.18 16.037-30.466 17.468-33.181l0.174-0.338c0.985-2.026 1.619-4.393 1.76-6.889l0.002-0.048c0.001-0.053 0.002-0.116 0.002-0.176 0-4.353-2.704-8.075-6.524-9.577l-0.069-0.024c-4.604-2.202-10.145-4.268-16.069-6.392-11.962-4.212-25.738-8.182-33.786-10.098-16.629-5.010-29.41-8.036-46.412-12.235-15.918-4.39-19.238-6.319-19.796-21.592v-45.864c0.76-15.187 3.305-16.331 19.079-17.161 16.044 0 79.239 0 79.239-0.046 0.921 0.108 1.986 0.17 3.064 0.17 6.027 0 11.605-1.913 16.166-5.162l-0.086 0.058c3.857-4.101 6.226-9.638 6.226-15.727 0-0.994-0.064-1.971-0.185-2.931l0.013 0.115v-16.709c0.112-0.855 0.174-1.843 0.174-2.848 0-6.119-2.368-11.686-6.241-15.831l0.013 0.013c-4.493-3.118-10.063-4.984-16.066-4.984-1.060 0-2.107 0.059-3.139 0.173l0.126-0.013h-79.304c-15.839-0.878-18.254-1.975-19.079-17.301v-52.124c0.76-15.147 3.305-16.405 19.079-17.236h79.305c0.91 0.104 1.966 0.164 3.035 0.164 6.003 0 11.566-1.877 16.136-5.073l-0.092 0.061c3.885-4.123 6.272-9.694 6.272-15.823 0-0.95-0.058-1.887-0.17-2.809l0.012 0.111c0-10.882-0.061-13.362-0.061-16.864 0.109-0.842 0.172-1.812 0.172-2.798 0-6.093-2.367-11.634-6.235-15.751l0.013 0.013c-4.447-3.108-9.964-4.963-15.917-4.963-1.038 0-2.064 0.057-3.073 0.167l0.124-0.012h-79.752c-15.538-0.787-18.132-2.26-18.846-16.485 0-11.402 0.046-21.22 0.046-21.22 0.050-1.487 0.078-3.237 0.078-4.991 0-27.834-7.175-53.996-19.776-76.73l0.414 0.813c-13.151-26.63-34.354-47.609-60.389-60.143l-0.776-0.336c-4.276-1.92-9.587-3.867-15.040-5.48l-0.952-0.242c49.609-16.973 99.048-31.65 148.719-43.616-6.424-42.512-27.188-79.296-57.116-106.035l-0.173-0.15c-6.703-4.604-7.695-7.423-4.642-13.679 0.951-1.808 2.096-3.798 3.214-5.693 2.179-3.063 5.714-5.040 9.713-5.040 2.849 0 5.464 1.003 7.51 2.675l-0.021-0.016c55.23 23.435 100.782 60.607 133.706 107.318l0.654 0.976c78.245-14.588 169.182-23.788 261.955-25.461l1.543-0.021c32.688-0.434 48.014 16.336 63.328 46.218 68.358 161.593 108.23 349.465 108.573 546.609v0.133c-1.83 28.882-12.906 45.465-51.938 66.055zM627.855 252.599c-7.642 0-10.543 0.026-26.569 0.026-0.866-0.094-1.867-0.146-2.883-0.146-6.063 0-11.688 1.881-16.323 5.091l0.094-0.063c-3.889 4.084-6.278 9.624-6.278 15.722 0 1.003 0.066 1.993 0.191 2.964l-0.013-0.115c0 3.487-0.046 17.475-0.046 23.15-0.106 0.828-0.167 1.786-0.167 2.76 0 6.143 2.41 11.726 6.335 15.85l-0.010-0.011c4.487 3.115 10.048 4.974 16.044 4.974 1.076 0 2.136-0.061 3.181-0.175l-0.128 0.013c8.622 0.061 10.066 0.061 17.556 0 1.774-0.23 3.825-0.362 5.906-0.362 12.968 0 24.741 5.118 33.41 13.442l-0.015-0.014c6.074 8.924 9.697 19.942 9.697 31.806 0 1.939-0.096 3.856-0.285 5.744l0.018-0.238c-2.885 32.597-13.305 62.262-29.489 87.927l0.478-0.814c-12.361 19.646-25.79 36.715-40.797 52.25l0.088-0.092c-4.956 4.207-8.262 10.222-8.894 17.015l-0.008 0.1c0.308 4.745 1.414 9.153 3.186 13.203l-0.097-0.254c10.331 29.669 52.185 153.781 52.99 156.17 0.013 0.212 0.061 0.399 0.061 0.566-0.629 0.094-1.363 0.154-2.109 0.167h-92.783c-1.443 0-1.443-0.071-1.443-0.114 0.14-0.14-0.061 0 0-1.265-0.061-45.054-0.061-418.258-0.061-517.878 0.113-0.852 0.176-1.837 0.176-2.839 0-6.071-2.365-11.59-6.22-15.687l0.012 0.013c-4.476-3.121-10.028-4.989-16.017-4.989-1.074 0-2.132 0.061-3.174 0.176l0.127-0.013c-10.49 0-13.603-0.086-21.020-0.086-0.866-0.094-1.867-0.147-2.883-0.147-6.062 0-11.684 1.89-16.305 5.117l0.094-0.062c-3.892 4.123-6.284 9.697-6.284 15.831 0 0.984 0.063 1.956 0.181 2.907l-0.013-0.114c-0.061 8.242-0.061 563.472 0 563.472-0.112 0.846-0.174 1.827-0.174 2.822 0 6.121 2.415 11.679 6.344 15.772l-0.008-0.009c4.51 3.12 10.098 4.986 16.121 4.986 1.048 0 2.082-0.057 3.101-0.167l-0.125 0.012h174.595c16.060 0.364 22.79-4.71 34.098-21.639 0.652-0.912 1.378-1.808 5.925-8.129 4.706-5.204 7.775-11.969 8.356-19.431l0.008-0.113c-0.271-5.14-1.319-9.954-3.029-14.441l0.109 0.326c-11.927-36.559-51.034-142.207-56.963-155.319-2.339-3.785-4.092-8.203-5.002-12.924l-0.040-0.248c0-2.328 1.244-5.074 6.718-10.137 25.747-23.125 45.696-52.191 57.735-85.070l0.47-1.472c7.387-21.136 11.679-45.503 11.74-70.864v-0.028c-0.186-70.343-28.077-115.44-109.493-114.912z" />
<glyph unicode="&#xe935;" glyph-name="news" d="M766.022 823.742h-508.045c-67.034 0-121.72-54.684-121.72-121.72v-508.045c0-67.034 54.684-121.72 121.72-121.72h508.045c67.034 0 121.72 54.684 121.72 121.72v508.045c0 67.034-54.684 121.72-121.72 121.72zM257.978 779.641h508.045c42.336 0 76.733-34.398 76.733-76.733v-204.628h-662.4v203.748c0 42.336 35.282 77.619 77.619 77.619zM766.022 116.359h-508.045c-42.336 0-76.733 34.398-76.733 76.733v260.196h662.4v-259.316c0-42.336-35.282-77.619-77.619-77.619zM407.922 635.871c0-43.841-35.542-79.383-79.383-79.383s-79.383 35.542-79.383 79.383c0 43.841 35.542 79.383 79.383 79.383s79.383-35.542 79.383-79.383zM491.714 667.624h268.134c12.348 0 22.050 9.703 22.050 22.050s-9.703 22.050-22.050 22.050h-268.134c-12.348 0-22.050-9.703-22.050-22.050s10.583-22.050 22.050-22.050zM491.714 554.722h268.134c12.348 0 22.050 9.703 22.050 22.050s-9.703 22.050-22.050 22.050h-268.134c-12.348 0-22.050-9.703-22.050-22.050 0-11.467 10.583-22.050 22.050-22.050z" />
<glyph unicode="&#xe936;" glyph-name="hierarchy" d="M236.8 566.4h-124.8c-12.8 0-25.6 12.8-25.6 25.6v121.6c0 12.8 12.8 25.6 25.6 25.6h121.6c12.8 0 25.6-12.8 25.6-25.6v-121.6c0-12.8-9.6-25.6-22.4-25.6zM137.6 617.6h70.4v73.6h-70.4v-73.6zM304 678.4h630.4v-51.2h-630.4v51.2zM451.2 345.6h-121.6c-12.8 0-25.6 12.8-25.6 25.6v121.6c0 12.8 12.8 25.6 25.6 25.6h121.6c12.8 0 25.6-12.8 25.6-25.6v-121.6c0-12.8-9.6-25.6-25.6-25.6zM355.2 396.8h70.4v70.4h-70.4v-70.4zM512 457.6h425.6v-51.2h-425.6c0 3.2 0 51.2 0 51.2zM198.4 518.4v-112h-48v112c0 0 48 0 48 0zM256 409.6h-57.6v51.2h57.6c0-3.2 0-51.2 0-51.2zM668.8 124.8h-121.6c-12.8 0-25.6 12.8-25.6 25.6v121.6c0 12.8 12.8 25.6 25.6 25.6h121.6c12.8 0 25.6-12.8 25.6-25.6v-121.6c0-16-9.6-25.6-25.6-25.6zM572.8 176h70.4v70.4h-70.4v-70.4zM729.6 236.8h204.8v-51.2h-204.8c0 0 0 51.2 0 51.2zM419.2 297.6v-112h-51.2v112c0 0 51.2 0 51.2 0zM473.6 185.6h-54.4v51.2h54.4c0 0 0-51.2 0-51.2z" />
<glyph unicode="&#xe937;" glyph-name="job" d="M304 588.8c-60.8 0-108.8-48-108.8-108.8s48-108.8 108.8-108.8c60.8 0 108.8 48 108.8 108.8s-48 108.8-108.8 108.8zM304 406.4c-41.6 0-73.6 35.2-73.6 73.6 0 41.6 35.2 73.6 73.6 73.6 41.6 0 73.6-35.2 73.6-73.6 3.2-41.6-32-73.6-73.6-73.6zM508.8 217.6c0 0 0 0 0 0-16 41.6-44.8 73.6-80 99.2s-80 38.4-124.8 38.4c-44.8 0-86.4-12.8-124.8-38.4-35.2-25.6-64-57.6-80-99.2 0 0 0 0 0 0v0c0 0 0 0 0 0s0 0 0 0c0-3.2 0-6.4 0-6.4 0-6.4 6.4-9.6 9.6-12.8 3.2 0 3.2 0 6.4 0s3.2 0 6.4 0c3.2 3.2 6.4 6.4 9.6 9.6 0 0 0 0 0 3.2 0 0 0 3.2 0 3.2s0 3.2 0 3.2c0 0 0 3.2 0 3.2v3.2c0 0 0 3.2 3.2 3.2 0 3.2 3.2 3.2 3.2 6.4l3.2 6.4c0 3.2 3.2 3.2 3.2 6.4l3.2 6.4c12.8-6.4 12.8-3.2 12.8-3.2l6.4 6.4c0 3.2 3.2 3.2 3.2 6.4l3.2 6.4c0 0 3.2 3.2 6.4 3.2 0 0 3.2 0 3.2 3.2 0 0 3.2 0 3.2 3.2l16 9.6c0 0 3.2 0 3.2 3.2l9.6 6.4c3.2 0 3.2 3.2 6.4 3.2s3.2 3.2 6.4 3.2c3.2 0 3.2 3.2 6.4 3.2s3.2 3.2 6.4 3.2h3.2c0 0 3.2 0 3.2 3.2h3.2c0 0 3.2 0 3.2 0l6.4 3.2c3.2 0 3.2 0 6.4 0v0c3.2 0 3.2 0 6.4 0h6.4c3.2 0 3.2 0 6.4 0s6.4 0 6.4 0h12.8c73.6 0 140.8-44.8 169.6-112 0-3.2 3.2-6.4 6.4-9.6s9.6-3.2 12.8-3.2c6.4 0 9.6 6.4 12.8 12.8 0 0 0 0 0 3.2v0c0 0 0 3.2 0 3.2l3.2 6.4zM1011.2 758.4h-384v99.2h-230.4v-99.2h-384c-6.4 0-12.8-6.4-12.8-12.8v-668.8c0-6.4 6.4-12.8 12.8-12.8h995.2c6.4 0 12.8 6.4 12.8 12.8v668.8c3.2 6.4-3.2 12.8-9.6 12.8zM432 822.4h160v-156.8h-160v156.8zM969.6 118.4h-915.2v585.6h342.4v-70.4h230.4v70.4h342.4v-585.6zM572.8 496h246.4v-44.8h-246.4v44.8zM572.8 400h172.8v-44.8h-172.8v44.8zM572.8 307.2h304v-44.8h-304v44.8z" />
<glyph unicode="&#xe938;" glyph-name="minus" d="M822.4 406.4h-620.8c-22.4 0-41.6 19.2-41.6 41.6s19.2 41.6 41.6 41.6h617.6c22.4 0 41.6-19.2 41.6-41.6s-16-41.6-38.4-41.6z" />
<glyph unicode="&#xe939;" glyph-name="muscle" d="M304-64c-22.4 0-54.4 0-99.2 3.2-150.4 6.4-182.4 166.4-188.8 214.4-9.6 67.2 22.4 220.8 166.4 272 115.2 41.6 201.6-19.2 236.8-48 3.2 3.2 9.6 6.4 12.8 9.6 57.6 35.2 99.2 35.2 147.2 32 12.8 0 25.6-6.4 38.4-9.6 0 3.2 0 3.2 0 6.4v6.4c0 80 0 211.2-6.4 236.8-3.2 19.2-48 51.2-60.8 54.4 0 0-3.2 0-6.4-3.2-6.4-3.2-16-6.4-28.8-6.4-19.2 0-35.2 6.4-51.2 12.8-3.2 0-3.2 0-6.4 3.2-6.4-3.2-12.8-9.6-25.6-16-25.6-12.8-48-12.8-64 0h-3.2c-16 9.6-35.2 16-48 44.8-16 32-12.8 67.2-6.4 83.2 0 0 67.2 121.6 99.2 128 12.8 3.2 19.2 0 67.2-16 12.8-3.2 28.8-9.6 44.8-16 108.8-35.2 124.8-48 195.2-121.6 12.8-12.8 25.6-25.6 38.4-41.6 92.8-96 198.4-345.6 240-448l3.2-6.4c6.4-16 19.2-64-9.6-99.2-156.8-198.4-400-262.4-400-262.4-25.6-6.4-86.4-9.6-140.8-9.6-32 0-64-3.2-80-3.2h-3.2c-6.4 3.2-19.2 0-60.8 0zM262.4 387.2c-19.2 0-38.4-3.2-60.8-9.6-124.8-44.8-134.4-179.2-128-214.4 6.4-48 32-163.2 137.6-166.4 115.2-3.2 137.6 0 147.2 0h3.2c19.2 3.2 48 3.2 86.4 3.2 48 0 108.8 3.2 131.2 6.4 3.2 0 227.2 60.8 371.2 243.2 9.6 9.6 6.4 35.2 0 41.6l-3.2 6.4c-83.2 208-169.6 368-230.4 428.8-16 16-28.8 28.8-41.6 41.6-67.2 70.4-73.6 76.8-172.8 108.8-19.2 6.4-35.2 9.6-44.8 16-16 6.4-28.8 9.6-35.2 12.8-16-22.4-54.4-73.6-60.8-86.4-3.2-9.6-3.2-28.8 0-41.6 3.2-9.6 9.6-12.8 22.4-19.2l3.2-3.2c0 0 3.2 0 3.2-3.2 3.2 0 6.4 0 16 3.2s16 6.4 19.2 9.6 22.4 16 41.6 6.4c3.2 0 6.4-3.2 9.6-3.2 12.8-3.2 25.6-9.6 32-9.6 3.2 0 3.2 0 9.6 3.2s16 6.4 32 6.4c28.8 0 102.4-44.8 115.2-96 6.4-38.4 6.4-211.2 6.4-246.4 6.4-28.8 19.2-60.8 19.2-67.2l9.6-19.2-16-16c-16-16-35.2 0-41.6 3.2-12.8 9.6-44.8 35.2-67.2 38.4-41.6 3.2-70.4 3.2-112-22.4-9.6-6.4-19.2-16-22.4-22.4l-22.4-25.6-25.6 28.8c0 6.4-54.4 64-131.2 64zM691.2 358.4v0c0 0 0 0 0 0zM550.4 716.8c0 0 0 0 0 0s0 0 0 0zM393.6 752v0 0zM419.2 89.6l-12.8-25.6c35.2-19.2 70.4-25.6 108.8-25.6 89.6 0 179.2 48 217.6 108.8l-22.4 16c-48-76.8-188.8-128-291.2-73.6z" />
<glyph unicode="&#xe93a;" glyph-name="pay" d="M915.2 512v0c-35.2 16-73.6 9.6-99.2-16l-172.8-169.6c-3.2 6.4-6.4 12.8-12.8 19.2-16 22.4-41.6 32-67.2 32h-326.4c-41.6 0-80-16-112-41.6l-60.8-54.4c-9.6-9.6-9.6-25.6 0-35.2s25.6-12.8 35.2-3.2c0 0 0 0 0 0l60.8 54.4c22.4 19.2 48 28.8 76.8 28.8h326.4c19.2 0 35.2-16 35.2-35.2s-16-35.2-35.2-35.2h-220.8c-12.8 0-25.6-12.8-25.6-25.6s12.8-25.6 25.6-25.6h220.8c28.8 0 57.6 16 73.6 38.4l217.6 214.4c9.6 9.6 25.6 12.8 38.4 6.4v0c16-6.4 25.6-28.8 16-44.8-3.2-3.2-3.2-6.4-6.4-9.6l-272-272c-32-32-76.8-51.2-124.8-51.2h-192c-35.2 0-67.2-16-86.4-41.6l-28.8-41.6c-6.4-12.8-3.2-28.8 6.4-35.2 12.8-9.6 28.8-6.4 35.2 6.4l28.8 41.6c9.6 12.8 25.6 22.4 44.8 22.4h192c60.8 0 118.4 22.4 160 67.2l272 272c32 32 32 86.4 0 121.6-3.2 3.2-12.8 9.6-22.4 12.8zM502.4 915.2c-134.4 0-246.4-112-246.4-246.4s108.8-246.4 246.4-246.4 246.4 108.8 246.4 246.4-108.8 246.4-246.4 246.4zM502.4 470.4c-108.8 0-195.2 86.4-195.2 195.2s86.4 198.4 195.2 198.4 195.2-86.4 195.2-195.2-86.4-198.4-195.2-198.4zM518.4 684.8v64h64v32h-64v32h-32v-32h-64v-131.2h64v-64h-64v-32h64v-32h32v32h64v131.2c3.2 0-64 0-64 0zM486.4 684.8h-32v64h32v-64zM553.6 585.6h-32v64h32v-64z" />
<glyph unicode="&#xe93b;" glyph-name="playlist-add" d="M86 278v84h340v-84h-340zM768 362h170v-84h-170v-172h-86v172h-170v84h170v172h86v-172zM598 704v-86h-512v86h512zM598 534v-86h-512v86h512z" />
<glyph unicode="&#xe93c;" glyph-name="phone-in-talk" d="M640 448c0 70-58 128-128 128v86c118 0 214-96 214-214h-86zM810 448c0 166-132 298-298 298v86c212 0 384-172 384-384h-86zM854 298c24 0 42-18 42-42v-150c0-24-18-42-42-42-400 0-726 326-726 726 0 24 18 42 42 42h150c24 0 42-18 42-42 0-54 8-104 24-152 4-14 2-32-10-44l-94-94c62-122 162-220 282-282l94 94c12 12 30 14 44 10 48-16 98-24 152-24z" />
<glyph unicode="&#xe93d;" glyph-name="list-bulleted" d="M308.7 731.1h568.1v-79.8h-568.1v79.8zM308.7 408.1v79.8h568.1v-79.8h-568.1zM308.7 164.9v79.8h568.1v-79.8h-568.1zM187.1 265.6c34.2 0 60.8-28.5 60.8-60.8s-28.5-60.8-60.8-60.8-60.8 28.5-60.8 60.8 26.6 60.8 60.8 60.8zM187.1 752c34.2 0 60.8-26.6 60.8-60.8s-26.6-60.8-60.8-60.8-60.8 26.6-60.8 60.8 26.6 60.8 60.8 60.8zM187.1 508.8c34.2 0 60.8-26.6 60.8-60.8s-26.6-60.8-60.8-60.8-60.8 26.6-60.8 60.8 26.6 60.8 60.8 60.8z" />
<glyph unicode="&#xe93e;" glyph-name="car" d="M214 490h596l-64 192h-468zM746 278c36 0 64 28 64 64s-28 64-64 64-64-28-64-64 28-64 64-64zM278 278c36 0 64 28 64 64s-28 64-64 64-64-28-64-64 28-64 64-64zM808 704l88-256v-342c0-24-18-42-42-42h-44c-24 0-42 18-42 42v44h-512v-44c0-24-18-42-42-42h-44c-24 0-42 18-42 42v342l88 256c8 26 34 42 62 42h468c28 0 54-16 62-42z" />
<glyph unicode="&#xe93f;" glyph-name="info-o" d="M470 576v86h84v-86h-84zM512 106c188 0 342 154 342 342s-154 342-342 342-342-154-342-342 154-342 342-342zM512 874c236 0 426-190 426-426s-190-426-426-426-426 190-426 426 190 426 426 426zM470 234v256h84v-256h-84z" />
<glyph unicode="&#xe940;" glyph-name="whatsapp" d="M816.595 754.45c-80.83 81-188.325 125.55-302.905 125.55-235.912 0-427.95-192.037-427.95-428.12 0-75.43 19.745-149.175 57.205-213.975l-60.75-221.905 226.97 59.57c62.605-34.087 132.975-52.145 204.525-52.145h0.17c0 0 0 0 0 0 235.913 0 428.12 192.037 428.12 428.12 0 114.412-44.55 221.905-125.38 302.905zM513.855 95.65v0c-63.955 0-126.563 17.212-181.238 49.612l-12.995 7.763-134.663-35.27 35.945 131.287-8.438 13.5c-35.775 56.53-54.505 122.005-54.505 189.338 0 196.255 159.637 355.895 356.062 355.895 95.005 0 184.445-37.125 251.605-104.287 67.162-67.33 104.12-156.6 104.12-251.775-0.17-196.425-159.805-356.062-355.895-356.062zM708.93 362.275c-10.63 5.4-63.28 31.22-73.070 34.763s-16.875 5.4-24.13-5.4c-7.088-10.63-27.675-34.762-33.92-42.020-6.245-7.088-12.488-8.1-23.12-2.7s-45.225 16.705-86.063 53.155c-31.725 28.35-53.325 63.45-59.57 74.080s-0.675 16.537 4.725 21.77c4.895 4.725 10.63 12.488 16.030 18.73s7.087 10.63 10.63 17.887c3.545 7.088 1.855 13.33-0.845 18.73s-24.13 58.050-32.905 79.48c-8.605 20.925-17.55 18.055-24.13 18.395-6.245 0.337-13.33 0.337-20.42 0.337s-18.73-2.7-28.52-13.33c-9.787-10.63-37.462-36.62-37.462-89.27s38.305-103.445 43.705-110.7c5.4-7.087 75.43-115.255 182.755-161.495 25.48-10.97 45.395-17.55 60.92-22.613 25.65-8.1 48.938-6.92 67.33-4.22 20.587 3.037 63.28 25.82 72.225 50.795s8.945 46.405 6.245 50.795c-2.53 4.725-9.62 7.425-20.42 12.825z" />
<glyph unicode="&#xe941;" glyph-name="save" d="M874.795 838.4h-634.893c-7.887 0-11.83-3.943-19.717-7.887l-90.699-94.642c-3.943-3.943-3.943-11.83-3.943-19.717v-630.949c0-15.775 11.83-27.605 27.605-27.605h725.593c15.775 0 27.605 11.83 27.605 27.605v725.593c-7.887 15.775-19.717 27.605-31.547 27.605zM397.641 680.663v106.472h276.041v-102.529h-276.041zM373.981 629.399h327.305c15.775 0 27.605 11.83 27.605 27.605v130.134h126.189v-674.328h-678.271v595.459l74.925 78.869h94.642v-130.134c0-15.775 11.83-27.605 27.605-27.605zM535.66 219.281c86.755 0 153.794 70.982 153.794 153.794 0 86.755-70.982 153.794-153.794 153.794s-153.794-70.982-153.794-153.794c0-82.812 67.039-153.794 153.794-153.794zM433.131 373.075c0 55.207 47.322 102.529 102.529 102.529s102.529-47.322 102.529-102.529-47.322-102.529-102.529-102.529-102.529 47.322-102.529 102.529z" />
<glyph unicode="&#xe942;" glyph-name="location" d="M357.216 590.272c0 84.96 69.312 153.824 154.784 153.824s154.784-68.864 154.784-153.824-69.312-153.792-154.784-153.792-154.784 68.864-154.784 153.792zM248.864 571.072c0-64.352 78.528-200 78.528-200l184.608-307.648 174.016 307.616c0 0 89.12 136.64 89.12 200 0 144.416-117.824 261.472-263.136 261.472s-263.136-117.024-263.136-261.44z" />
<glyph unicode="&#xe957;" glyph-name="wechat" d="M682.402 599.468v0h5.68c10.232 0.726 18.377 8.744 19.305 18.853l0.007 0.084c0 0.042 0.001 0.093 0.001 0.144 0 4.058-1.276 7.817-3.448 10.898l0.039-0.058c-43.547 118.144-169.645 197.288-315.054 197.288-182.519 0-331.336-127.232-331.336-284.002 1.689-89.671 47.272-168.347 116.104-215.633l0.907-0.588-37.867-78.384c-1.346-2.537-2.138-5.546-2.138-8.739 0-10.456 8.477-18.933 18.933-18.933 3.587 0 6.938 0.997 9.795 2.728l100.264 57.132c24.381-8.946 52.829-15.739 82.308-19.147l1.758-0.165c0.602-0.067 1.297-0.108 2.002-0.108 10.456 0 18.933 8.477 18.933 18.933 0 1.515-0.179 2.989-0.513 4.4l0.026-0.129c-4.23 14.935-6.956 32.197-7.563 49.996l-0.013 0.368c0 146.166 144.273 265.069 321.87 265.069zM474.133 675.203c20.912 0 37.867-16.955 37.867-37.867s-16.955-37.867-37.867-37.867c-20.912 0-37.867 16.955-37.867 37.867v0c0 20.912 16.955 37.867 37.867 37.867v0zM284.797 599.468c-20.912 0-37.867 16.955-37.867 37.867s16.955 37.867 37.867 37.867c20.912 0 37.867-16.955 37.867-37.867v0c0-20.912-16.955-37.867-37.867-37.867v0zM966.404 334.4c0 125.339-127.232 227.203-284.002 227.203s-284.002-101.861-284.002-227.203 127.232-227.203 284.002-227.203c0.051 0 0.11 0 0.171 0 30.886 0 60.84 4.007 89.361 11.528l-2.436-0.546 93.909-46.955c2.411-1.194 5.25-1.894 8.252-1.894 0.028 0 0.055 0 0.084 0h-0.005c10.416 0.054 18.839 8.51 18.839 18.933 0 2.594-0.522 5.068-1.467 7.321l0.046-0.126-25.749 64.373c59.941 36.652 100.053 100.622 102.986 174.155l0.013 0.413zM587.733 372.267c-20.912 0-37.867 16.955-37.867 37.867s16.955 37.867 37.867 37.867c20.912 0 37.867-16.955 37.867-37.867v0c0-20.912-16.955-37.867-37.867-37.867v0zM777.069 372.267c-20.912 0-37.867 16.955-37.867 37.867s16.955 37.867 37.867 37.867c20.912 0 37.867-16.955 37.867-37.867v0c0-20.912-16.955-37.867-37.867-37.867v0z" />
<glyph unicode="&#xe97c;" glyph-name="frame-1" d="M134.285 737.81h755.431v-325.414l69.080 0.033v394.46h-893.59v-717.78h582.948l-0.174 69.080h-513.694zM799.702 407.295c-87.868 0-159.093-71.224-159.093-159.093s71.224-159.093 159.093-159.093 159.093 71.224 159.093 159.093-71.224 159.093-159.093 159.093zM799.702 133.070c-63.585 0-115.133 51.548-115.133 115.133s51.548 115.133 115.133 115.133 115.133-51.548 115.133-115.133-51.548-115.133-115.133-115.133zM785.36 288.477c-7.208-5.605-13.878-9.423-20.009-11.431v-21.318c11.663 3.842 21.796 9.778 30.399 17.806v-87.024h25.051v122.38h-20.634c-2.668-7.49-7.611-14.796-14.807-20.413v0zM275.584 617.444h472.832v-189.347l69.080 0.033v258.394h-610.991v-477.048h405.015l-0.174 69.080h-335.762z" />
<glyph unicode="&#xe981;" glyph-name="email-thin" d="M131.591 173.117l256.768 256.768 102.946-102.929c5.513-5.564 12.868-8.585 20.702-8.585 7.817 0 15.155 3.021 20.668 8.567l102.963 102.946 256.768-256.768h-760.815zM921.607 715.855l0.017-523.691-261.854 261.854 261.837 261.837zM102.407 715.837l261.82-261.82-261.82-261.82v523.639zM895.631 738.127l-383.625-383.607-383.625 383.607h767.249zM921.607 772.26h-819.2c-18.825 0-34.133-15.309-34.133-34.133v-565.009c0-18.825 15.309-34.133 34.133-34.133h819.2c18.825 0 34.133 15.309 34.133 34.133v565.009c0 18.825-15.309 34.133-34.133 34.133z" />
<glyph unicode="&#xe982;" glyph-name="volunteer-thin" d="M596.412 241.613l-84.412-84.267-84.395 84.267c-13.595 13.575-20.794 28.733-20.846 43.856-0.052 12.913 5.089 25.165 14.449 34.511 8.837 8.824 20.881 14.497 34.337 14.497 13.892 0 29.265-6.039 44.15-20.901 6.536-6.526 18.11-6.526 24.646 0 17.482 17.456 37.544 24.26 56.403 19.213 16.733-4.49 30.432-18.169 34.912-34.859 5.072-18.883-1.778-38.879-19.242-56.317zM589.754 366.413c-26.302 6.979-53.91 0.696-77.719-17.421-41.361 31.587-88.090 22.938-115.472-4.403-30.154-30.108-37.648-83.606 6.397-127.584l86.312-86.164c6.066-6.074 14.136-9.415 22.728-9.415 8.61 0 16.68 3.341 22.763 9.415l86.295 86.164c26.267 26.227 36.568 59.015 28.254 89.941-7.756 28.924-30.589 51.723-59.558 59.467zM886.74 90.273h-749.481v81.117c0 102.976 91.21 195.022 232.339 234.493 21.16 5.917 36.847 22.067 41.971 43.213 5.037 20.849-1.429 42.064-17.273 56.735-35.295 32.649-55.531 78.907-55.531 126.923 0 47.111 18.615 91.141 52.464 124.016 33.796 32.823 78.085 50.47 125.704 48.886 90.286-2.471 165.757-77.845 168.267-167.977 1.377-50.069-18.964-98.259-55.81-132.179-15.687-14.427-22.066-35.398-17.081-56.126 5.055-20.971 21.195-37.643 42.11-43.491 141.129-39.488 232.322-131.535 232.322-234.493v-81.117zM663.813 439.402c-8.907 2.489-15.478 9.259-17.622 18.117-0.941 3.968-2.196 14.097 6.815 22.381 44.254 40.741 68.691 98.59 67.052 158.719-3.015 108.319-93.703 198.851-202.168 201.844-56.908 1.444-110.365-19.3-150.977-58.754-40.629-39.453-63.009-92.36-63.009-148.955 0-57.692 24.297-113.244 66.704-152.453 6.571-6.074 9.133-14.462 7.059-23.025-2.109-8.719-8.628-15.402-17.465-17.873-156.607-43.804-257.804-149.008-257.804-268.012v-98.52c0-9.624 7.791-17.403 17.43-17.403h784.34c9.639 0 17.43 7.779 17.43 17.403v98.52c0 118.987-101.18 224.208-257.787 268.012z" />
<glyph unicode="&#xe983;" glyph-name="gift-thin" d="M832.958 514.754h-193.617v155.301h248.65l0.017-155.301h-55.050zM832.975 88.715h-193.634v392.791h193.617l0.017-392.791zM191.058 88.715v392.791h193.617v-392.791h-193.617zM136.008 514.754v155.301h248.667v-155.301h-248.667zM418.284 481.506v188.549h187.45l0.017-155.301v-426.039h-187.467v392.791zM722.774 807.285c26.399 0 47.875-21.262 47.875-47.362 0-31.22-25.693-56.621-57.268-56.621h-183.417c8.217 58.666 59.234 103.983 120.771 103.983h72.039zM253.368 759.924c0 26.1 21.476 47.362 47.875 47.362h72.039c61.537 0 112.554-45.317 120.771-103.983h-183.417c-31.575 0-57.268 25.401-57.268 56.621zM887.992 703.303h-104.135c12.721 15.46 20.4 35.16 20.4 56.621 0 44.452-36.566 80.61-81.483 80.61h-72.039c-60.596 0-113.075-34.528-138.735-84.666-25.643 50.138-78.122 84.666-138.718 84.666h-72.039c-44.917 0-81.483-36.157-81.483-80.61 0-21.462 7.663-41.161 20.4-56.621h-104.152c-18.535 0-33.608-14.928-33.608-33.248v-155.301c0-18.336 15.073-33.248 33.608-33.248h21.442v-392.791c0-18.32 15.073-33.248 33.608-33.248h641.9c18.535 0 33.608 14.928 33.608 33.248v392.791h21.425c18.535 0 33.608 14.912 33.608 33.248v155.301c0 18.32-15.073 33.248-33.608 33.248z" />
<glyph unicode="&#xe984;" glyph-name="youtube-thin" d="M442.596 339.944l0.756 199.569 172.348-100.442-173.104-99.127zM656.835 453.164l-221.536 129.105c-5.078 2.96-11.34 2.976-16.434 0.066s-8.25-8.337-8.267-14.208l-0.97-256.549c-0.033-5.871 3.090-11.314 8.151-14.274 2.564-1.496 5.423-2.236 8.283-2.236 2.81 0 5.621 0.724 8.151 2.171l222.506 127.428c5.095 2.927 8.25 8.337 8.283 14.224 0.016 5.871-3.090 11.314-8.168 14.274zM922.86 437.92c0-1.365-0.707-137.705-18.061-201.51-8.431-31.096-33.017-55.516-64.176-63.722-63.864-16.855-327.062-16.017-329.675-16.050-2.662 0.016-265.827 1.184-329.593 18.533-31.061 8.452-55.466 33.037-63.683 64.215-16.829 63.886-16.533 200.26-16.533 201.625 0.016 1.365 0.723 137.722 18.061 201.51 8.431 31.096 33.017 55.516 64.176 63.722 58.046 15.343 280.782 16.083 322.838 16.083 4.207 0 6.607-0.016 6.853-0.016 2.646-0.016 265.811-1.184 329.576-18.549 31.061-8.452 55.466-33.053 63.683-64.199 16.845-63.886 16.549-200.276 16.533-201.641zM851.255 735.497c-67.891 18.483-327.078 19.651-338.073 19.7-10.962-0.016-270.182 0.806-338.188-17.151-42.483-11.199-76.009-44.499-87.513-86.892-18.472-67.932-19.179-204.239-19.212-210.011-0.016-5.756-0.312-142.080 17.634-210.143 11.192-42.492 44.455-76.055 86.84-87.55 67.891-18.483 327.078-19.667 338.073-19.7 1.068 0 4.47-0.016 9.811-0.016 49.714 0 266.977 0.937 328.377 17.168 42.483 11.182 76.009 44.499 87.513 86.892 18.472 67.932 19.195 204.239 19.212 209.995 0.033 5.772 0.329 142.096-17.634 210.143-11.175 42.509-44.472 76.055-86.84 87.566z" />
<glyph unicode="&#xe985;" glyph-name="facebook-thin" d="M871.124 113.665c0-13.66-11.113-24.79-24.773-24.79h-174.843v257.688h81.001c8.391 0 15.475 6.211 16.556 14.567l14.637 113.431c0.611 4.763-0.855 9.56-4.030 13.154-3.158 3.611-7.729 5.705-12.526 5.705h-95.639v55.704c0 26.186 3.89 38.52 39.532 38.52l60.066 0.035c9.211 0 16.696 7.484 16.696 16.695v101.446c0 8.391-6.211 15.457-14.498 16.573-11.288 1.5-48.081 4.606-89.742 4.606-100.297 0-162.613-63.851-162.613-166.657v-66.921h-81.246c-9.229 0-16.713-7.484-16.713-16.713v-113.448c0-9.246 7.484-16.695 16.713-16.695h81.246v-257.688h-343.301c-13.66 0-24.773 11.13-24.773 24.79v668.687c0 13.66 11.113 24.773 24.773 24.773h668.702c13.66 0 24.773-11.113 24.773-24.773v-668.687zM554.359 88.875v274.383c0 9.229-7.467 16.713-16.696 16.713h-81.246v80.040h81.246c9.229 0 16.696 7.449 16.696 16.695v83.634c0 83.442 48.308 133.249 129.205 133.249 28.594 0 54.519-1.483 70.83-2.844v-69.677l-43.371-0.017c-65.352 0-72.924-41.049-72.924-71.928v-72.416c0-9.246 7.484-16.695 16.713-16.695h93.336l-10.328-80.040h-83.008c-9.229 0-16.713-7.484-16.713-16.713v-274.383h-83.74zM846.351 840.533h-668.702c-32.066 0-58.182-26.099-58.182-58.181v-668.687c0-32.082 26.117-58.198 58.182-58.198h668.702c32.083 0 58.182 26.116 58.182 58.198v668.687c0 32.082-26.099 58.181-58.182 58.181z" />
<glyph unicode="&#xe986;" glyph-name="instagram-thin" d="M736.975 708.325c-19.49 0-35.345-15.855-35.345-35.345s15.855-35.362 35.345-35.362c19.507 0 35.345 15.872 35.345 35.362s-15.838 35.345-35.345 35.345zM736.975 603.911c-38.076 0-69.069 30.976-69.069 69.069 0 38.076 30.993 69.086 69.069 69.086s69.086-31.010 69.086-69.086c0-38.093-31.010-69.069-69.086-69.069zM512.002 603.911c-85.982 0-155.904-69.939-155.904-155.904s69.922-155.904 155.904-155.904c85.965 0 155.904 69.939 155.904 155.904s-69.939 155.904-155.904 155.904zM512.002 258.396c-104.567 0-189.628 85.060-189.628 189.611s85.060 189.611 189.628 189.611c104.55 0 189.628-85.060 189.628-189.611s-85.077-189.611-189.628-189.611zM308.618 823.883c-95.113 0-172.493-77.38-172.493-172.493v-406.767c0-95.113 77.38-172.493 172.493-172.493h406.75c95.13 0 172.51 77.38 172.51 172.493v406.767c0 95.113-77.38 172.493-172.51 172.493h-406.75zM715.368 38.407h-406.75c-113.715 0-206.217 92.501-206.217 206.217v406.767c0 113.698 92.501 206.217 206.217 206.217h406.75c113.715 0 206.234-92.518 206.234-206.217v-406.767c0-113.715-92.518-206.217-206.234-206.217z" />
<glyph unicode="&#xe9bf;" glyph-name="line-text" d="M353.331 627.264h-52.79c-8.198 0-14.597-6.599-14.597-14.597v-328.536c0-7.998 6.599-14.597 14.597-14.597h52.79c8.198 0 14.597 6.599 14.597 14.597v328.336c0 8.198-6.599 14.797-14.597 14.797zM717.26 627.264h-52.79c-8.198 0-14.597-6.599-14.597-14.597v-195.162l-150.571 203.36c-0.4 0.6-0.8 1-1.2 1.4 0 0 0 0 0 0.2-0.2 0.4-0.6 0.6-0.8 0.8 0 0-0.2 0.2-0.2 0.2-0.2 0.2-0.6 0.4-0.8 0.6-0.2 0-0.2 0.2-0.4 0.2-0.2 0.2-0.6 0.4-0.8 0.6-0.2 0-0.2 0.2-0.4 0.2-0.2 0.2-0.6 0.4-0.8 0.4s-0.4 0.2-0.4 0.2-0.6 0.2-0.8 0.4c-0.2 0-0.4 0.2-0.4 0.2-0.2 0-0.6 0.2-0.8 0.2s-0.4 0-0.6 0.2c-0.2 0-0.6 0.2-0.8 0.2s-0.4 0-0.6 0c-0.2 0-0.6 0-0.8 0s-0.6 0-0.8 0c-0.2 0-0.4 0-0.4 0h-53.39c-8.198 0-14.597-6.599-14.597-14.597v-328.536c0-7.998 6.599-14.597 14.597-14.597h52.79c8.198 0 14.597 6.599 14.597 14.597v195.162l150.971-203.36c1-1.4 2.4-2.599 3.799-3.599 0 0 0.2 0 0.2-0.2 0.2-0.2 0.6-0.4 1-0.6 0.2 0 0.2-0.2 0.4-0.2 0.2-0.2 0.4-0.2 0.6-0.4s0.4-0.2 0.6-0.4c0.2 0 0.4-0.2 0.4-0.2 0.4-0.2 0.6-0.2 1-0.4 0 0 0.2 0 0.2 0 1.2-0.4 2.4-0.4 3.799-0.4h52.79c8.198 0 14.597 6.599 14.597 14.597v328.736c0.2 8.198-6.399 14.797-14.597 14.797zM225.756 351.718h-143.572v260.749c0 8.198-6.599 14.597-14.597 14.597h-52.99c-8.198 0-14.597-6.599-14.597-14.597v-328.536c0-3.999 1.6-7.599 4.199-10.198 0 0 0.2-0.2 0.2-0.2s0.2-0.2 0.2-0.2c2.599-2.599 6.199-4.199 10.198-4.199v0h211.159c7.998 0 14.597 6.599 14.597 14.597v52.79c0 8.598-6.599 15.197-14.797 15.197zM1009.403 544.88c8.198 0 14.597 6.599 14.597 14.597v52.79c0 8.198-6.599 14.597-14.597 14.597h-211.359c-3.999 0-7.599-1.6-10.198-4.199 0 0-0.2-0.2-0.2-0.2s-0.2-0.2-0.2-0.2c-2.599-2.599-3.999-6.199-3.999-10.198v0-328.536c0-3.999 1.6-7.599 3.999-10.198 0 0 0.2-0.2 0.2-0.2s0.2-0.2 0.2-0.2c2.599-2.599 6.199-4.199 10.198-4.199v0h211.159c8.198 0 14.597 6.599 14.597 14.597v52.79c0 8.198-6.599 14.597-14.597 14.597h-143.772v55.589h143.772c8.198 0 14.597 6.599 14.597 14.597v52.79c0 8.198-6.599 14.597-14.597 14.597h-143.772v55.589h143.972z" />
<glyph unicode="&#xe9c0;" glyph-name="facebook" d="M712 847.999v0 0-160h-80c-27.6 0-40-32.4-40-60v-100h120v-160h-120v-319.999h-160v319.999h-120v160h120v160c0 88.4 71.6 160 160 160h120z" />
<glyph unicode="&#xe9c1;" glyph-name="pinterest" d="M565.353 224.003c-42.664 0-83.629 18.348-113.070 49.068l-50.772-170.671-3.417-11.097-1.709 0.852c-10.668-17.491-29.011-28.164-49.921-28.164-32.004 0-58.452 26.457-58.452 58.884 0 2.556 0.423 5.124 0.852 7.68l-0.852 0.423 2.556 9.389 98.557 296.534c0 0-10.668 32.429-10.668 78.51 0 91.736 49.497 119.465 88.744 119.465 39.684 0 75.948-14.076 75.948-69.972 0-71.676-47.789-108.373-47.789-159.573 0-40.109 32.429-72.108 71.676-72.108 124.59 0 168.962 93.445 168.962 181.333 0 116.485-100.693 210.778-224.005 210.778-123.733 0-224.005-94.292-224.005-210.778 0-35.844 10.668-71.676 29.011-102.829 4.692-8.532 7.257-17.916 7.257-27.732 0-29.436-23.892-53.337-53.337-53.337-18.777 0-36.269 10.668-46.081 26.457-28.589 48.212-43.524 102.397-43.524 157.442 0 175.357 148.477 317.438 330.667 317.438s330.667-142.082 330.667-317.438c0-139.95-87.037-290.558-277.334-290.558z" />
<glyph unicode="&#xe9c2;" glyph-name="google-plus" d="M998.858 492.259h-88.522v88.522h-88.522v-88.522h-88.522v-88.522h88.522v-88.522h88.522v88.522h88.522zM334.961 492.259v-106.223h177.039c-8.852-44.26-53.112-132.779-177.039-132.779-106.223 0-190.317 88.522-190.317 194.743s84.094 194.743 190.317 194.743c61.963 0 101.797-26.556 123.928-48.686l84.094 79.668c-53.112 53.112-123.928 84.094-208.020 84.094-172.614 0-309.819-137.205-309.819-309.819s137.205-309.819 309.819-309.819c177.039 0 296.542 123.928 296.542 300.966 0 22.129 0 35.406-4.426 53.112h-292.114z" />
<glyph unicode="&#xe9c3;" glyph-name="instagram" d="M350.72 832h322.56c122.879 0 222.72-99.839 222.72-222.72v-322.56c0-122.879-99.839-222.72-222.72-222.72h-322.56c-122.879 0-222.72 99.839-222.72 222.72v322.56c0 122.879 99.839 222.72 222.72 222.72zM343.041 755.199c-76.416 0-138.24-61.824-138.24-138.24v-337.92c0-76.416 61.824-138.24 138.24-138.24h337.92c76.416 0 138.24 61.824 138.24 138.24v337.92c0 76.416-61.824 138.24-138.24 138.24h-337.92zM713.6 697.599c26.496 0 48-21.504 48-48s-21.504-48-48-48c-26.496 0-48 21.504-48 48s21.504 48 48 48zM512 639.999c105.984 0 191.999-86.015 191.999-191.999s-86.015-191.999-191.999-191.999c-105.984 0-191.999 86.015-191.999 191.999s86.015 191.999 191.999 191.999zM512 563.2c-63.744 0-115.2-51.456-115.2-115.2s51.456-115.2 115.2-115.2c63.744 0 115.2 51.456 115.2 115.2s-51.456 115.2-115.2 115.2z" />
<glyph unicode="&#xe9c4;" glyph-name="plurk" d="M644.467 816h-451.375v-736h186.45v203.7h451.375v532.3h-186.45zM644.467 468.408h-264.788v162.874h264.075v-162.725l0.724-0.149z" />
<glyph unicode="&#xe9c5;" glyph-name="twitter" d="M925.553 704.989c-30.444-13.836-63.258-22.93-97.258-27.279 34.792 20.953 61.677 54.164 74.327 94.098-32.817-19.769-69.19-33.607-107.539-41.516-31.235 34-75.12 53.77-124.938 53.77-92.91 0-168.819-75.911-168.819-169.614 0-13.443 1.584-26.491 4.349-38.744-140.751 7.115-266.083 74.721-349.503 177.124-14.628-24.907-22.93-54.164-22.93-85.004 0-58.907 29.651-111.1 75.516-140.751-28.073 0-54.164 7.907-77.094 19.769 0 0 0 0 0-1.188 0-82.238 58.514-151.031 136.007-166.448-14.229-3.956-29.256-5.935-44.676-5.935-10.676 0-21.352 1.188-31.628 3.16 21.352-66.818 83.421-116.633 158.149-117.821-57.724-45.861-130.867-72.749-210.729-72.749-13.443 0-26.884 0.789-40.327 2.372 75.12-48.237 164.471-76.306 260.151-76.306 311.548 0 482.744 258.569 482.744 482.744 0 7.51 0 14.628-0.395 22.141 33.212 23.723 61.677 53.77 84.61 88.166z" />
<glyph unicode="&#xe9c6;" glyph-name="qqchat" d="M145.085 383.937c24.128 57.408 57.825 99.84 82.785 108.993-0.416 33.28 5.824 54.081 16.224 70.72 0 1.248-2.496 14.976 6.656 32.032 6.24 149.76 103.584 268.32 261.249 268.32s255.009-118.56 261.249-268.32c9.152-17.056 6.656-30.784 6.656-32.032 10.4-16.64 16.64-37.44 16.224-70.72 24.96-9.152 58.656-51.585 82.785-109.408 31.2-73.216 36.192-143.52 11.232-156-17.056-8.32-44.097 12.48-69.472 49.089-9.984-40.768-34.944-78.208-70.305-107.745 37.44-13.728 61.569-36.192 61.569-61.569 0-41.601-65.728-75.297-146.433-75.297-73.216 0-132.705 27.456-144.768 62.4h-17.472c-12.064-34.944-71.553-62.4-144.768-62.4-80.704 0-146.433 33.696-146.433 75.297 0 25.376 24.128 47.841 61.569 61.569-35.36 29.536-60.321 66.976-70.305 107.745-25.376-36.608-52.416-57.408-69.472-49.089-24.96 12.48-19.968 82.785 11.232 156.417z" />
<glyph unicode="&#xe9c7;" glyph-name="vimeo" d="M875.96 617.621c-3.278-71.007-52.804-168.235-148.568-292.042-99.045-129.634-182.802-193.361-251.984-193.361-41.876 0-77.928 39.323-107.422 118.347-20.026 71.374-38.237 143.469-58.626 215.57-21.848 78.658-45.152 117.982-70.644 117.982-5.1 0-24.031-11.655-56.808-34.592l-34.231 44.424c36.415 31.682 71.374 63.361 106.326 95.039 48.066 41.515 84.117 63.361 107.788 65.546 56.808 5.828 91.761-33.501 104.872-116.526 14.199-89.945 24.031-145.659 29.496-167.509 15.661-74.285 33.865-110.7 53.891-110.7 15.293 0 38.237 23.304 68.824 71.733 30.587 48.066 46.976 84.844 49.158 110.334 4.372 41.515-12.015 62.269-49.158 62.269-17.477 0-35.32-4.005-53.891-12.015 35.687 117.615 104.144 174.79 205.009 171.513 75.011-2.183 110.334-50.98 105.966-146.018z" />
<glyph unicode="&#xe9c8;" glyph-name="youtube" d="M924.616 616.4c0 0-8.224 58.052-33.548 83.544-32.068 33.548-67.92 33.712-84.364 35.688-117.748 8.552-294.538 8.552-294.538 8.552h-0.328c0 0-176.788 0-294.538-8.552-16.444-1.972-52.296-2.137-84.364-35.688-25.326-25.492-33.384-83.544-33.384-83.544s-8.388-68.084-8.388-136.332v-63.808c0-68.084 8.388-136.332 8.388-136.332s8.224-58.052 33.384-83.544c32.068-33.548 74.168-32.396 92.916-36.016 67.428-6.412 286.316-8.388 286.316-8.388s176.952 0.328 294.704 8.716c16.444 1.972 52.296 2.137 84.364 35.688 25.326 25.492 33.548 83.544 33.548 83.544s8.388 68.084 8.388 136.332v63.808c-0.164 68.084-8.552 136.332-8.552 136.332zM425.004 338.803v236.65l227.44-118.736-227.44-117.913z" />
<glyph unicode="&#xe9c9;" glyph-name="dots-horizontal" d="M349.079 448c0-40.268-32.643-72.911-72.911-72.911s-72.911 32.643-72.911 72.911c0 40.268 32.643 72.911 72.911 72.911s72.911-32.643 72.911-72.911zM584.911 448c0-40.268-32.643-72.911-72.911-72.911s-72.911 32.643-72.911 72.911c0 40.268 32.643 72.911 72.911 72.911s72.911-32.643 72.911-72.911zM820.744 448c0-40.268-32.643-72.911-72.911-72.911s-72.911 32.643-72.911 72.911c0 40.268 32.643 72.911 72.911 72.911s72.911-32.643 72.911-72.911z" />
<glyph unicode="&#xe9ca;" glyph-name="moon" d="M518.939 64.009c-215.299 0-390.788 175.48-390.788 391.357 0 93.291 33.276 183.445 93.855 254.27 49.205 57.732 113.481 99.55 186.010 121.162 10.236 3.131 21.044 0 28.443-7.399 7.399-7.681 9.951-18.774 6.54-28.725-10.812-32.711-16.493-67.405-16.493-102.679 0-180.319 146.473-326.797 326.509-326.797 36.406 0 71.674 5.975 105.23 17.35 9.951 3.412 21.044 1.14 28.725-6.256s10.812-18.202 7.681-28.443c-21.044-73.381-62.567-138.793-120.591-188.571-70.53-61.436-161.267-95.279-255.12-95.279zM375.307 757.422c-42.094-20.196-79.637-48.924-110.068-84.756-51.766-60.299-80.202-137.657-80.202-217.296 0-184.585 149.886-334.471 333.903-334.471 80.202 0 157.567 28.725 218.148 81.061 36.123 31.287 64.848 69.398 84.756 112.348-22.469-3.98-45.793-6.256-69.109-6.256-211.322 0-383.391 172.069-383.391 383.676 0.281 22.469 2.271 44.367 5.975 65.697z" />
<glyph unicode="&#xe9cb;" glyph-name="weather-sunny" d="M963.474 475.939h-184.111c-5.308 53.362-26.539 102.255-58.67 141.648l130.188 130.188c10.893 10.893 10.893 28.494 0 39.393s-28.494 10.893-39.393 0l-130.188-130.188c-39.393 31.847-88.286 52.801-141.648 58.109v184.672c0 15.369-12.57 27.939-27.939 27.939s-27.939-12.57-27.939-27.939v-184.949c-52.801-5.869-101.133-27.1-140.248-59.231l-131.587 131.587c-10.893 10.893-28.494 10.893-39.393 0s-10.893-28.494 0-39.393l131.864-131.864c-31.292-39.115-51.963-87.447-57.271-139.971h-187.181c-15.369 0-27.939-12.57-27.939-27.939s12.57-27.939 27.939-27.939h187.181c5.585-52.524 26.539-100.295 57.832-139.41l-132.425-132.425c-10.893-10.893-10.893-28.494 0-39.393 5.585-5.585 12.57-8.101 19.838-8.101s14.247 2.793 19.838 8.101l132.425 132.425c38.832-31.847 86.886-52.801 139.41-58.393v-186.626c0-15.369 12.57-27.939 27.939-27.939s27.939 12.57 27.939 27.939v186.065c52.801 5.308 101.416 25.984 140.809 57.554l131.026-131.026c5.585-5.585 12.57-8.101 19.838-8.101s14.247 2.793 19.838 8.101c10.893 10.893 10.893 28.494 0 39.393l-130.749 130.749c32.131 39.393 53.64 87.725 59.231 141.087h184.111c15.369 0 27.939 12.57 27.939 27.939s-12.853 27.939-28.494 27.939zM513.12 236.789c-116.779 0-211.766 94.987-211.766 211.766s94.987 211.766 211.766 211.766 211.766-94.987 211.766-211.766-94.987-211.766-211.766-211.766z" />
<glyph unicode="&#xe9cc;" glyph-name="reload" d="M979.021 554.158c-0.869 8.12-4.933 15.372-11.312 20.305v0c0 0 0 0 0 0-6.383 4.933-14.213 7.252-22.337 6.383s-15.372-4.933-20.305-11.312l-90.212-113.127h-0.869c-4.642 196.087-165.339 354.175-362.586 354.175-199.856 0-362.586-162.729-362.586-362.586s162.729-362.586 362.586-362.586c81.801 0 157.219 27.266 218.133 73.099 13.344 10.152 15.085 29.875 3.769 42.351-10.152 11.312-26.975 12.762-38.868 3.769-51.053-38.577-114.286-61.205-183.034-61.205-172.009 0-310.955 143.293-304.281 316.466 6.092 158.087 134.3 286.299 292.387 292.387 172.882 6.67 315.593-131.399 316.466-302.54l-1.741-0.291-113.127 90.212c-13.053 10.443-32.489 8.411-42.928-4.933-5.22-6.383-7.252-14.213-6.383-22.337s4.933-15.372 11.312-20.305l170.559-136.041c1.45-1.159 3.192-2.319 5.22-3.192 0.869-0.291 1.741-0.869 2.61-1.159 0.582-0.291 1.741-0.582 3.192-1.159 0.869-0.291 2.032-0.582 2.901-0.582 0.869-0.291 1.741-0.291 2.901-0.291 2.032-0.291 4.060 0 6.092 0 2.032 0.291 3.769 0.582 5.801 1.159 0.869 0.291 1.741 0.582 2.61 0.869s2.032 0.869 2.901 1.45c1.159 0.582 2.032 1.159 2.61 1.741 0.869 0.582 1.45 1.159 2.319 1.741 1.45 1.159 2.901 2.61 4.060 4.351l136.041 170.85c4.642 6.383 6.961 14.213 6.092 22.337z" />
<glyph unicode="&#xe9cd;" glyph-name="globe-o" d="M882.096 599.003c-5.329 13.324-11.548 26.351-18.356 38.786-34.643 63.657-85.863 117.25-148.337 154.259-33.16 19.836-69.579 34.936-108.072 44.411-30.497 7.402-62.474 11.548-95.338 11.548s-64.844-4.146-95.338-11.548c-38.492-9.475-74.908-24.575-108.072-44.411-62.178-37.009-113.697-90.305-148.337-154.259-6.809-12.434-13.027-25.465-18.356-38.786-18.95-46.484-29.607-97.411-29.607-151.003s10.658-104.223 29.607-151.003c5.329-13.324 11.548-26.351 18.356-38.786 34.643-63.657 85.863-117.25 148.337-154.259 33.16-19.836 69.579-34.936 108.072-44.411 30.497-7.402 62.474-11.548 95.338-11.548s64.844 4.146 95.338 11.548c38.492 9.475 74.908 24.575 108.072 44.411 62.178 37.009 113.697 90.305 148.337 154.259 6.809 12.434 13.027 25.465 18.356 38.786 18.95 46.484 29.607 97.411 29.607 151.003s-10.658 104.223-29.607 151.003zM443.593 781.687c9.178 1.776 18.653 3.256 28.424 4.442-4.736-2.959-9.475-5.922-14.211-8.882-53.593-35.233-98.004-83.2-129.388-139.455h-99.187c49.15 72.835 125.538 125.538 214.364 143.898zM202.883 590.418h103.926c-14.507-37.306-23.392-76.981-26.055-118.73h-108.368c2.959 42.045 13.324 82.017 30.497 118.73zM172.384 424.315h108.368c2.37-41.748 11.548-81.424 26.055-118.73h-103.926c-17.173 36.716-27.535 76.685-30.497 118.73zM443.593 114.313c-88.826 18.060-165.214 71.059-214.364 143.898h99.187c31.090-56.255 75.502-104.223 129.388-139.455 4.736-2.959 9.475-5.922 14.211-8.882-9.475 1.183-18.95 2.666-28.424 4.442zM488.311 155.468c-41.748 26.351-77.278 61.584-104.223 102.743h104.223v-102.743zM488.311 305.582h-130.574c-16.58 36.716-26.945 76.685-29.904 118.73h160.478v-118.73zM488.311 471.685h-160.181c2.959 42.045 13.324 82.017 29.904 118.73h130.277v-118.73zM488.311 637.789h-104.223c26.945 41.155 62.771 76.391 104.223 102.743v-102.743zM580.388 781.687c88.826-18.060 165.214-71.059 214.364-143.898h-99.187c-31.090 56.255-75.502 104.223-129.388 139.455-4.736 2.959-9.475 5.922-14.211 8.882 9.475-1.183 18.95-2.666 28.424-4.442zM535.675 740.532c41.748-26.351 77.278-61.584 104.223-102.743h-104.223v102.743zM535.675 590.418h130.574c16.58-36.716 26.945-76.685 29.904-118.73h-160.478v118.73zM535.675 424.315h160.181c-2.959-42.045-13.324-82.017-29.904-118.73h-130.277v118.73zM535.675 258.211h104.223c-26.945-41.155-62.771-76.391-104.223-102.743v102.743zM580.388 114.313c-9.178-1.776-18.653-3.256-28.424-4.442 4.736 2.959 9.475 5.922 14.211 8.882 53.593 35.233 98.004 83.2 129.388 139.455h99.187c-49.15-72.835-125.538-125.538-214.364-143.898zM821.101 305.582h-103.926c14.507 37.306 23.392 76.981 26.055 118.73h108.368c-2.959-42.045-13.324-82.017-30.497-118.73zM743.23 471.685c-2.37 41.748-11.548 81.424-26.055 118.73h103.926c16.877-36.419 27.535-76.685 30.497-118.73h-108.368z" />
<glyph unicode="&#xe9ce;" glyph-name="globe" d="M511.217 847.002c-220.178 0-399.002-179.108-399.002-399.002s178.824-399.002 399.002-399.002 399.002 178.824 399.002 399.002-178.824 399.002-399.002 399.002zM853.185 448c0-19.395-1.712-38.218-4.563-56.47-7.701 7.701-10.552 18.538-9.697 35.081 0.284 3.138-0.284 4.848-5.705 7.701-3.422 1.712-6.844 3.422-10.552 4.848-6.56 3.138-13.69 6.275-20.25 10.268-6.844 4.279-25.384 15.402-23.101 37.648 1.141 10.552-2.851 17.683-13.406 22.246-6.56 3.138-16.257 7.13-25.954 9.127-15.116 2.851-32.514-7.13-35.936-17.112-1.141-2.851-1.141-4.279-1.141-4.848 0.284-0.284 1.426-1.141 3.993-1.996 2.851-1.141 5.705-1.996 9.127-2.851s7.13-1.996 10.839-3.422c2.281-0.855 4.848-1.712 7.13-2.567 8.842-3.138 17.969-6.275 26.238-11.694 9.982-6.275 15.686-15.402 16.257-25.668s-4.563-20.82-13.974-28.521c-2.567-2.281-5.418-3.993-7.985-5.989-2.851-1.996-5.418-3.708-7.701-5.705-2.567-2.281-5.989-5.418-7.13-8.272l-0.284-0.855c-11.694-25.954-15.686-28.521-43.921-27.093-1.712 0-2.567 0-3.138 0 0-0.284 0-0.284 0-0.571-1.712-11.407-8.556-25.668-31.088-28.805-1.426-0.284-3.422-0.855-5.418-1.426l-1.996-0.571c-21.962-6.844-24.529-9.697-26.809-32.227 0-1.426-0.284-2.851-0.284-4.279-0.284-3.708-0.284-7.701-1.426-11.978-0.571-1.996-1.141-4.279-1.712-6.275-1.712-7.985-3.993-16.828-9.697-23.958-16.828-20.82-22.532-42.211-17.683-67.595 4.279-21.962-4.563-40.215-25.384-53.334-23.671-14.831-50.481-20.534-79.857-17.112-36.22 4.279-50.196 19.395-49.626 54.76 0 10.268-3.138 16.828-11.407 22.246-23.958 16.257-32.798 36.791-26.238 61.319 0 0.571 0 1.712 0.284 2.851 0 1.426 0 2.567 0.284 3.993 0.571 7.13-1.712 11.694-7.415 15.116-8.556 5.134-17.683 10.268-26.238 14.831l-6.275 3.422c-5.989 3.138-11.694 6.56-17.683 9.697-11.407 6.275-23.387 12.549-34.794 19.395-17.112 10.268-27.093 24.813-28.805 42.495-2.281 22.817-3.138 44.778-4.279 71.017-1.141 24.813 11.407 42.782 37.648 54.76 9.411 4.279 18.253 10.552 23.958 17.398 27.664 32.227 49.626 34.51 82.994 9.127 0.284-0.284 1.141-0.855 1.996-1.712 5.134-5.418 11.694-7.13 21.391-4.848 13.406 2.851 25.954 0.284 37.648-7.415 3.138-1.996 6.275-4.279 9.411-6.56 10.268-6.844 20.82-13.974 31.088-20.534 10.839-6.56 19.108-10.839 27.093-13.974 9.982-3.993 17.112-0.855 21.391 9.411 1.712 3.993 2.851 8.842 3.708 14.545 1.712 13.119-0.571 15.116-10.839 17.112-19.108 3.993-34.224 13.69-47.343 31.088-11.694 15.402-15.116 16.257-35.081 8.842-4.563-1.712-8.842-3.422-13.406-5.134-9.982-3.708-14.545 22.532-25.097 19.395-23.671-6.844-39.073-14.261-48.484 7.13-10.552 24.242 0.571 38.218 23.387 49.626 13.69 6.844 15.971 5.418 34.794 9.411 3.708 0.855 7.701 1.712 11.407 2.567 33.939 7.415 66.167 14.261 96.4 29.66 12.549 6.275 19.965 14.261 23.387 25.668 2.567 7.985 6.275 16.257 11.407 25.384 13.974 24.529 34.51 38.218 61.319 40.215 114.938-55.044 194.224-172.549 194.224-308.022zM507.518 770.851c-0.855-28.521-20.534-33.085-41.925-33.655-11.407-0.284-16.828-3.422-21.104-12.264-9.982-19.965-30.518-28.235-53.618-21.675-7.415 1.996-15.971 4.279-23.671 8.556-13.406 7.13-26.238 6.844-40.783-0.571-1.712-0.855-3.422-1.996-5.418-3.138-3.993-2.567-8.556-5.134-13.974-6.844-10.268-3.138-19.965-4.563-28.805-4.563-0.571 0-0.855 0-1.426 0 59.894 56.47 140.321 91.55 228.734 92.976 1.712-5.418 2.281-11.694 1.996-18.824z" />
<glyph unicode="&#xe9cf;" glyph-name="spoon-knife" d="M445.088 831.853c-12.863 0-23.811-9.031-26.547-21.347h-0.822v-196.228c-0.822-3.011-1.095-6.569-0.547-9.853 0.547-3.558 0.547-6.842 0.547-10.4 0-39.136-25.725-72.524-61.030-84.021v300.774c0 15.053-12.316 27.369-27.369 27.369s-27.369-12.316-27.369-27.369v-300.227c-35.305 11.494-61.030 44.883-61.030 84.021 0 3.284 0.274 6.569 0.547 10.4 0.274 3.284 0.274 6.569-0.547 9.853v196.228h-0.822c-2.736 12.042-13.683 21.347-26.547 21.347s-23.811-9.031-26.547-21.347h-0.822v-202.797c0-1.369 0-2.736 0.274-4.105-0.274-3.011-0.274-6.294-0.274-9.305 0-69.515 49.81-127.809 115.767-140.672v-410.794c0-15.053 12.316-27.369 27.369-27.369s27.369 12.316 27.369 27.369v410.52c65.957 12.863 115.767 70.883 115.767 140.672 0 3.011 0 6.022-0.274 9.305 0.274 1.369 0.274 2.736 0.274 4.105v202.797h-0.822c-2.464 12.042-13.411 21.074-26.547 21.074zM798.404 786.148c-27.641 39.958-65.683 61.852-106.735 61.852s-78.821-21.894-106.735-61.852c-25.725-36.947-39.683-85.388-39.683-136.567s14.231-99.62 39.683-136.567c21.621-31.2 49.536-51.452 80.462-58.568v-411.071c0-15.053 12.316-27.369 27.369-27.369s27.369 12.316 27.369 27.369v411.617c29.831 7.663 56.925 27.641 77.999 58.021 25.725 36.947 39.683 85.388 39.683 136.567s-13.683 99.893-39.41 136.567zM691.948 505.9c-49.536 0-91.682 65.683-91.682 143.682s41.874 143.682 91.682 143.682 91.682-65.683 91.682-143.682-42.147-143.682-91.682-143.682z" />
<glyph unicode="&#xe9d0;" glyph-name="restaurant" d="M355.592 803.708c-11.953 0-22.127-8.393-24.67-19.838h-0.763v-182.356c-0.763-2.798-1.017-6.104-0.509-9.156 0.509-3.306 0.509-6.358 0.509-9.665 0-36.369-23.907-67.398-56.716-78.080v279.256c0 13.988-11.445 25.433-25.433 25.433s-25.433-11.445-25.433-25.433v-279.001c-32.809 10.682-56.716 41.71-56.716 78.080 0 3.052 0.254 6.104 0.509 9.665 0.254 3.052 0.254 6.104-0.509 9.156v182.356h-0.763c-2.543 11.191-12.717 19.838-24.67 19.838s-22.127-8.393-24.67-19.838h-0.763v-188.46c0-1.271 0-2.543 0.254-3.815-0.254-2.798-0.254-5.85-0.254-8.647 0-64.6 46.288-118.773 107.582-130.726v-381.751c0-13.988 11.445-25.433 25.433-25.433s25.433 11.445 25.433 25.433v381.751c61.294 11.953 107.582 65.872 107.582 130.726 0 2.798 0 5.595-0.254 8.647 0.254 1.271 0.254 2.543 0.254 3.815v188.46h-0.763c-2.543 11.191-12.717 19.584-24.67 19.584zM474.365 817.442c-13.988 0-25.433-11.445-25.433-25.433v-4.832c0-1.017-0.254-2.035-0.254-3.052v-713.145c0-13.988 11.445-25.433 25.433-25.433s25.433 11.445 25.433 25.433v267.048h81.64c6.867 0 13.479 2.798 18.312 7.63s7.376 11.699 7.121 18.566c-0.254 8.902-7.376 216.182-32.809 325.544-28.485 124.114-92.322 127.675-99.444 127.675zM499.799 388.894v353.775c8.393-12.971 17.294-33.318 24.67-64.346 19.075-82.149 27.468-229.661 30.266-289.429h-54.936zM872.394 761.235c-25.687 37.133-61.040 57.479-99.189 57.479s-73.247-20.346-99.189-57.479c-23.907-34.335-36.878-79.351-36.878-126.911s13.225-92.577 36.878-126.911c20.092-28.994 46.034-47.814 74.773-54.427v-382.006c0-13.988 11.445-25.433 25.433-25.433s25.433 11.445 25.433 25.433v382.26c27.722 7.121 52.901 25.687 72.484 53.918 23.907 34.335 36.878 79.351 36.878 126.911s-12.971 92.831-36.624 127.166zM773.205 500.799c-46.034 0-85.201 61.040-85.201 133.524s38.913 133.524 85.201 133.524 85.201-61.040 85.201-133.524-38.913-133.524-85.201-133.524z" />
<glyph unicode="&#xe9d1;" glyph-name="food-fork-drink" d="M884.768 689.752c13.737 0 24.976 11.239 24.976 24.976s-11.239 24.976-24.976 24.976h-117.385c-10.74 0-20.48-6.993-23.727-17.233l-38.712-119.883c-0.749-2.248-0.999-4.496-1.249-6.743h-201.553c-13.737 0-24.976-11.239-24.976-24.976s11.239-24.976 24.976-24.976h373.884c13.737 0 24.976 11.239 24.976 24.976s-11.239 24.976-24.976 24.976h-120.632l30.22 93.908h99.153zM864.787 497.683c-0.5 13.487-11.489 23.976-24.976 23.976s-24.476-10.74-24.976-23.976v0l-30.72-366.392h-189.565l-30.72 365.392c0 13.986-11.239 25.225-24.976 25.225-13.487 0-24.476-10.74-24.976-23.976h-0.25v-1.249c0-1.249 0.25-2.497 0.25-3.746l32.468-388.37c0.999-12.738 11.988-22.728 24.976-22.728h235.52c12.987 0 23.727 9.741 24.976 22.728l32.468 386.871c0.25 1.748 0.5 3.497 0.5 5.245 0 0.25 0 0.5 0 0.749v0.25zM382.509 801.635c-11.738 0-21.729-8.242-24.226-19.481h-0.749v-179.075c-0.749-2.747-0.999-5.994-0.5-8.991 0.5-3.247 0.5-6.244 0.5-9.491 0-35.715-23.477-66.185-55.696-76.675v274.232c0 13.737-11.239 24.976-24.976 24.976s-24.976-11.239-24.976-24.976v-273.982c-32.219 10.49-55.696 40.96-55.696 76.675 0 2.997 0.25 5.994 0.5 9.491 0.25 2.997 0.25 5.994-0.5 8.991v179.075h-0.749c-2.497 10.989-12.488 19.481-24.226 19.481s-21.729-8.242-24.226-19.481h-0.749v-185.069c0-1.249 0-2.497 0.25-3.746-0.25-2.747-0.25-5.744-0.25-8.492 0-63.438 45.455-116.636 105.647-128.375v-374.883c0-13.737 11.239-24.976 24.976-24.976s24.976 11.239 24.976 24.976v374.883c60.191 11.738 105.647 64.687 105.647 128.375 0 2.747 0 5.495-0.25 8.492 0.25 1.249 0.25 2.497 0.25 3.746v185.069h-0.749c-2.497 10.989-12.488 19.231-24.226 19.231z" />
<glyph unicode="&#xe9d2;" glyph-name="food-variant" d="M451.444 762.624c0 15.837-4.776 31.171-14.077 45.499-4.776 7.038-12.569 11.312-20.864 11.312h-209.144c-8.547 0-16.339-4.273-20.864-11.312-9.301-14.328-14.077-29.411-14.077-45.499 0-22.875 10.306-45.247 28.908-62.844-21.87-65.106-58.068-234.784-48.013-631.957 0.251-13.574 11.563-24.383 25.137-24.383h267.463c13.574 0 24.886 10.809 25.137 24.383 10.056 397.173-26.143 566.851-48.013 631.957 18.099 17.848 28.405 39.969 28.405 62.844zM420.774 93.463h-218.194c-8.798 424.321 36.952 569.867 51.281 604.809 4.523 11.061 0.754 23.883-9.049 30.416-8.295 5.782-22.624 17.596-22.624 33.936 0 2.011 0.251 4.273 0.754 6.284h177.471c0.503-2.011 0.754-4.273 0.754-6.284 0-16.339-14.077-28.154-22.624-33.936-9.804-6.787-13.826-19.356-9.049-30.416 14.58-34.941 60.079-180.487 51.281-604.809zM961.735 310.652c-3.519 10.056-13.072 16.591-23.629 16.591h-90.746l64.603 107.589c7.038 11.815 3.268 27.398-8.547 34.438s-27.398 3.268-34.438-8.547l-80.189-133.48h-243.834c-10.558 0-20.11-6.787-23.629-16.591-7.038-20.11-10.809-40.974-10.809-62.090 0-101.556 27.398-205.373 231.014-205.373s231.014 103.818 231.014 205.373c-0.251 21.115-3.771 42.231-10.809 62.090zM892.608 137.957c-26.646-29.914-76.167-44.493-151.328-44.493s-124.431 14.58-151.328 44.493c-20.864 23.126-29.662 56.308-29.662 110.605 0 9.552 1.005 19.105 3.016 28.657h355.445c2.011-9.301 3.016-18.853 3.016-28.657 0.251-54.297-8.547-87.479-29.16-110.605z" />
<glyph unicode="&#xe9d3;" glyph-name="coffee" d="M722.956 69.59h-479.686c-14.427 0-26.225-11.804-26.225-26.225s11.804-26.225 26.225-26.225h479.423c14.427 0 26.225 11.804 26.225 26.225s-11.542 26.225-25.962 26.225zM357.091 629.002c-9.969-6.030-13.116-18.883-7.341-28.852 3.932-6.554 11.018-10.231 18.097-10.231 3.67 0 7.341 1.049 10.755 2.885 45.37 27.011 70.55 79.99 61.106 129.036-3.407 18.359-12.067 32.261-19.67 44.321-2.623 4.456-5.243 8.39-7.604 12.853-6.554 12.067-14.688 28.327-19.146 45.108-8.39 33.045 4.456 66.618 31.474 81.825 9.969 5.768 13.64 18.621 7.866 28.59s-18.621 13.64-28.59 7.866c-43.534-24.651-64.514-77.629-51.405-128.774 5.505-21.503 15.212-40.65 23.078-54.814 2.885-5.243 5.768-9.969 8.653-14.688 6.554-10.493 12.067-19.408 14.165-30.163 6.030-31.474-11.542-67.143-41.436-84.977zM523.108 649.199c-10.231-5.768-13.64-18.359-8.128-28.59 3.932-6.817 11.018-10.755 18.359-10.755 3.407 0 7.079 0.787 10.231 2.623 31.212 17.31 44.583 54.29 31.737 87.598-2.885 7.604-6.554 14.427-10.231 20.981-6.817 12.591-11.018 20.457-9.706 28.852 1.311 8.128 6.030 15.999 12.853 20.719 9.444 6.554 11.804 19.67 5.243 29.114s-19.67 11.804-29.114 5.243c-16.261-11.28-27.274-29.114-30.163-48.784-3.407-22.815 6.292-40.65 14.165-55.339 3.146-5.505 5.768-10.755 7.866-15.736 5.243-13.902-0.262-28.59-13.116-35.931zM781.703 551.899c-4.456 0-8.653-0.262-13.116-0.787-1.574 0.262-3.146 0.525-4.719 0.525h-561.511c-14.427 0-26.225-11.804-26.225-26.225v-97.3c0-17.834 1.574-35.931 4.456-53.765 12.067-72.386 48.784-138.474 103.336-186.471 55.339-48.522 126.151-75.271 199.062-75.271 101.231 0 195.915 51.405 253.352 137.162 4.981 7.604 9.969 15.999 14.949 24.651 2.885 5.243 5.243 9.969 7.341 14.427 7.604-1.311 15.212-2.098 23.078-2.098 72.911 0 132.444 59.533 132.444 132.444s-59.533 132.706-132.444 132.706zM712.198 313.761c-2.098-4.194-4.456-8.915-7.079-13.902-3.932-7.341-8.128-14.165-12.329-20.457-47.735-71.337-125.889-113.823-209.811-113.823-124.316 0-229.743 91.532-250.985 217.945-2.36 14.949-3.67 29.901-3.67 45.108v71.075h509.055v-71.075c0-14.949-1.311-30.163-3.67-45.108-2.623-15.999-6.817-31.737-12.329-47.211-2.623-8.128-5.768-15.736-9.177-22.553zM781.703 328.972c-2.36 0-4.719 0-7.079 0.262 4.719 14.949 8.39 29.901 11.018 45.108 2.885 17.572 4.456 35.669 4.456 53.765v81.301c45.892-4.194 82.086-43.010 82.086-89.958 0-49.833-40.65-90.483-90.483-90.483z" />
<glyph unicode="&#xe9d4;" glyph-name="glass-flute" d="M946.544 737.441c0 104.979-85.294 190.56-190.56 190.56-98.133 0-178.865-74.453-189.42-169.736h-364.577c-15.69 0-28.529-12.839-28.529-28.529v-94.71c0-17.687 1.425-35.375 4.281-52.776 11.981-71.030 47.927-136.072 101.556-182.861 47.069-41.362 105.551-66.468 167.171-72.461v-269.866h-123.239c-15.69 0-28.529-12.839-28.529-28.529s12.839-28.529 28.529-28.529h303.243c15.69 0 28.529 12.839 28.529 28.529s-12.839 28.529-28.529 28.529h-123.239v269.866c88.431 8.558 169.449 57.052 220.228 133.508 5.135 7.418 9.983 15.69 14.55 24.247 3.137 5.993 5.993 11.408 8.271 16.548 3.995 8.271 7.418 17.115 10.841 26.245 2.57 6.846 4.562 13.406 6.56 20.252 101.842 3.995 182.861 87.578 182.861 189.707zM230.515 700.927h488.955v-65.896c0-12.839-1.139-25.673-2.851-38.511h-483.248c-1.998 12.839-2.851 25.673-2.851 38.511v65.896zM695.223 524.912c-1.998-3.995-4.281-8.558-6.846-13.406-3.709-7.132-7.704-13.692-11.981-19.685-45.644-68.465-120.955-109.261-201.401-109.261-105.551 0-196.839 68.752-230.497 168.31h460.999c-0.572-1.425-0.858-2.851-1.425-4.562-2.851-7.418-5.707-14.55-8.844-21.396zM775.097 603.647c1.139 10.555 1.712 20.824 1.712 31.379v94.71c0 15.69-12.839 28.529-28.529 28.529h-125.803c9.983 64.756 66.182 114.681 133.794 114.681 74.453 0 135.219-60.761 135.219-135.219-0.286-68.465-50.778-124.95-116.393-134.075z" />
<glyph unicode="&#xe9d5;" glyph-name="glass-tulip" d="M747.267 536.855c2.098 14.418 3.147 29.358 3.407 44.039 0 3.933-0.263 7.863-1.049 11.797l-46.397 249.817c-2.358 12.32-13.106 21.495-25.688 21.495h-331.344c-12.583 0-23.593-8.912-25.688-21.495l-46.137-249.817c-0.786-3.933-1.049-7.863-1.049-11.797 0.263-14.681 1.312-29.621 3.407-44.039 17.825-127.138 103.808-221.771 209.188-235.399v-249.031h-113.506c-14.418 0-26.214-11.797-26.214-26.214s11.797-26.214 26.214-26.214h279.178c14.418 0 26.214 11.797 26.214 26.214s-11.797 26.214-26.214 26.214h-113.506v249.031c105.38 13.632 191.1 108.264 209.188 235.399zM367.951 811.579h287.565l38.534-208.662h-364.635l38.534 208.662zM328.368 544.197c-0.786 5.505-1.312 11.011-1.835 16.776h370.664c-0.523-5.505-1.049-11.27-1.835-16.776-15.73-111.408-92.797-192.149-183.497-192.149s-167.77 80.738-183.497 192.149z" />
<glyph unicode="&#xe9d6;" glyph-name="music-note" d="M813.318 874.006c-6.763 5.356-15.786 7.33-24.237 5.076l-266.649-67.649c-12.406-3.103-21.142-14.377-21.142-27.34v-169.119c0-0.28 0-0.845 0-1.129v-303.292c-32.131 28.749-75.259 46.508-122.611 46.508-98.652 0-178.987-76.388-178.987-170.528s80.335-170.528 178.987-170.528c96.114 0 174.76 72.721 178.7 163.201 0 1.129 0.28 1.974 0.28 3.103v410.115l245.507 62.296c12.406 3.103 21.142 14.377 21.142 27.34v169.684c-0.28 8.736-4.225 16.91-10.997 22.264zM378.399 72.096c-67.649 0-122.611 51.299-122.611 114.153s54.966 114.153 122.611 114.153 122.611-51.299 122.611-114.153-54.966-114.153-122.611-114.153zM767.652 703.756l-210.274-53.273v111.622l210.274 53.273v-111.622z" />
<glyph unicode="&#xe9d7;" glyph-name="music" d="M914.013 906.034c-6.737 5.335-15.717 7.296-24.138 5.053l-531.326-134.726c-12.348-3.086-21.052-14.315-21.052-27.223v-471.824c-31.999 28.631-74.939 46.314-122.095 46.314-98.24 0-178.231-76.063-178.231-169.81s79.992-169.81 178.231-169.81c95.714 0 174.021 72.418 177.949 162.515 0 1.124 0.282 1.967 0.282 3.086v408.671l475.189 120.693v-263.558c-31.999 28.631-74.939 46.314-122.095 46.314-98.24 0-178.231-76.063-178.231-169.81s79.992-169.81 178.231-169.81c94.030 0 171.218 69.61 177.672 157.462 0.282 1.684 0.56 3.368 0.56 5.335v598.975c-0.282 8.703-4.21 16.841-10.947 22.176zM215.398 40.132c-67.366 0-122.095 51.084-122.095 113.674s54.735 113.674 122.095 113.674 122.095-51.084 122.095-113.674-55.012-113.674-122.095-113.674zM393.629 616.087v111.148l475.189 120.693v-111.148l-475.189-120.693zM746.447 177.945c-67.366 0-122.095 51.084-122.095 113.674s54.735 113.674 122.095 113.674 122.095-51.084 122.095-113.674-54.735-113.674-122.095-113.674z" />
<glyph unicode="&#xe9d8;" glyph-name="book-open-page-variant" d="M978.927 577.476c0 0.536-0.268 1.067-0.268 1.603 0 0.268 0 0.536-0.268 1.067 0 0.536-0.268 1.335-0.536 1.871 0 0.268 0 0.536-0.268 0.536-0.268 0.536-0.536 1.335-0.536 1.871 0 0.268-0.268 0.536-0.268 0.536-0.268 0.536-0.536 1.067-0.799 1.603 0 0.268-0.268 0.536-0.268 0.799-0.268 0.536-0.536 0.799-0.799 1.335-0.268 0.268-0.268 0.536-0.536 0.799s-0.536 0.799-0.799 1.067c-0.268 0.268-0.536 0.536-0.799 1.067-0.268 0.268-0.536 0.536-0.799 1.067-0.268 0.268-0.536 0.536-0.799 0.799l-178.335 180.474c0 0 0 0 0 0-0.268 0.268-0.799 0.799-1.335 1.067-0.268 0.268-0.536 0.536-0.799 0.536-3.205 2.67-7.21 4.804-11.746 5.607 0 0 0 0-0.268 0-0.799 0.268-1.603 0.268-2.402 0.268s-1.871 0.268-2.67 0.268h-702.135c-14.683 0-26.697-12.014-26.697-26.697v-614.034c0-14.683 12.014-26.697 26.697-26.697h881.006c14.683 0 26.697 12.014 26.697 26.697v433.829c0 0.799 0 1.603-0.268 2.67zM800.86 690.408l87.833-88.9h-87.833v88.9zM98.189 728.583h387.109v-560.64h-387.109v560.64zM538.692 167.943v560.64h208.773v-153.776c0-14.683 12.014-26.697 26.697-26.697h151.638v-380.166h-387.109zM172.143 596.164h240.81v-42.715h-240.81v42.715zM172.143 490.442h197.023v-42.715h-197.023v42.715zM172.143 384.726h120.405v-42.715h-120.405v42.715z" />
<glyph unicode="&#xe9d9;" glyph-name="book" d="M316.857 834.286c-59.249 0-107.404-43.113-107.404-96.058v-634.589c0-55.971 45.634-101.353 101.353-101.353h503.738v832h-497.687zM764.118 52.709h-453.314c-28.238 0-50.929 22.943-50.929 50.929v22.439h504.242v-73.367zM259.875 176.498v561.726c0 25.212 25.464 45.634 56.98 45.634h447.263v-607.36h-504.242z" />
<glyph unicode="&#xe9da;" glyph-name="gift" d="M848.551 638.681h-141.459c15.77 20.312 25.088 45.879 25.088 73.358 0 66.907-54.719 121.147-122.104 121.147-40.143 0-75.987-19.356-98.209-49.223-22.222 29.868-58.064 49.223-98.209 49.223-67.385 0-122.104-54.481-122.104-121.147 0-27.48 9.318-53.046 25.088-73.358h-141.459c-31.303 0-56.632-25.567-56.632-56.632v-98.209c0-13.141 10.753-23.894 23.894-23.894h39.905v-368.462c0-31.303 25.567-56.632 56.632-56.632h264.516c2.629-0.956 5.495-1.672 8.602-1.672s5.736 0.478 8.602 1.672h264.516c31.303 0 56.632 25.567 56.632 56.632v368.221h39.665c13.141 0 23.894 10.753 23.894 23.894v98.209c0 31.54-25.567 56.869-56.869 56.869zM610.317 785.635c40.862 0 74.313-32.975 74.313-73.358s-33.453-73.596-74.313-73.596h-74.313v73.358c0 40.621 33.213 73.596 74.313 73.596zM339.587 712.277c0 40.383 33.213 73.358 74.313 73.358 40.862 0 74.313-32.975 74.313-73.358v-73.596h-74.313c-40.862 0-74.313 32.975-74.313 73.596zM230.149 91.246v367.027h258.064v-375.867h-248.987c-5.017 0-9.081 3.823-9.081 8.84zM794.070 91.246c0-5.017-4.063-8.84-8.84-8.84h-249.224v375.867h258.064v-367.027zM857.632 507.498h-691.041v74.313c0 5.017 4.063 8.84 8.84 8.84h673.361c5.017 0 8.84-4.063 8.84-8.84v-74.313z" />
<glyph unicode="&#xe9db;" glyph-name="circle-o" d="M512 48c-220.482 0-400 179.518-400 400s179.518 400 400 400 400-179.518 400-400-179.518-400-400-400zM512 784c-185.282 0-336-150.718-336-336s150.718-336 336-336 336 150.718 336 336-150.718 336-336 336z" />
<glyph unicode="&#xe9dc;" glyph-name="circle" d="M912 448c0-220.913-179.087-400-400-400s-400 179.087-400 400c0 220.913 179.087 400 400 400s400-179.087 400-400z" />
<glyph unicode="&#xe9dd;" glyph-name="square-o" d="M834.56 64h-645.12c-33.792 0-61.44 27.648-61.44 61.44v645.12c0 33.792 27.648 61.44 61.44 61.44h645.12c33.792 0 61.44-27.648 61.44-61.44v-645.12c0-33.792-27.648-61.44-61.44-61.44zM189.44 770.56v-645.12h645.12c0 0 0 0 0 0v645.12h-645.12z" />
<glyph unicode="&#xe9de;" glyph-name="square" d="M862.607 64h-701.214c-18.369 0-33.396 15.028-33.396 33.396v701.214c0 18.369 15.028 33.396 33.396 33.396h701.214c18.369 0 33.396-15.028 33.396-33.396v-701.214c0-18.369-15.028-33.396-33.396-33.396z" />
<glyph unicode="&#xe9df;" glyph-name="print" d="M910.84 628.237h-113.431v165.882c0 13.416-10.973 24.39-24.39 24.39h-522.034c-13.416 0-24.39-10.973-24.39-24.39v-165.882h-113.431c-15.365 0-28.052-12.682-28.052-28.052v-368.354c0-15.365 12.682-28.052 28.052-28.052h113.431v-163.438c0-13.416 10.973-24.39 24.39-24.39h522.034c13.416 0 24.39 10.973 24.39 24.39v163.438h113.431c15.365 0 28.052 12.682 28.052 28.052v368.354c0 15.365-12.682 28.052-28.052 28.052zM275.376 769.719h473.247v-141.489h-473.247v141.489zM748.617 64.729h-473.247v339.078h473.247v-339.078zM890.109 252.563h-92.699v175.639c0 13.416-10.973 24.39-24.39 24.39h-522.034c-13.416 0-24.39-10.973-24.39-24.39v-175.639h-92.699v326.88h756.223v-326.88zM348.558 315.991h326.88v-39.034h-326.88v39.034zM348.558 198.893h326.88v-39.034h-326.88v39.034zM851.074 513.582c0-21.556-17.471-39.034-39.034-39.034s-39.034 17.471-39.034 39.034c0 21.556 17.471 39.034 39.034 39.034s39.034-17.471 39.034-39.034z" />
<glyph unicode="&#xe9e0;" glyph-name="film" d="M926.236 725.474h-828.471c-12.444 0-22.257-10.049-22.257-22.257v-510.437c0-12.444 10.049-22.257 22.257-22.257h828.471c12.444 0 22.257 10.049 22.257 22.257v510.198c0 12.444-9.81 22.495-22.257 22.495zM903.977 596.968h-108.404v83.755h108.404v-83.755zM266.713 680.724h490.573v-465.684h-490.573v465.684zM795.574 426.346h108.404v-94.047h-108.404v94.047zM795.574 464.633v94.047h108.404v-94.047h-108.404zM120.023 680.724h108.404v-83.755h-108.404v83.755zM120.023 558.679h108.404v-94.047h-108.404v94.047zM120.023 426.346h108.404v-94.047h-108.404v94.047zM120.023 294.010h108.404v-78.967h-108.404v78.967zM795.574 215.036v78.967h108.404v-78.967h-108.404zM632.606 454.341l-234.042 135.208c-2.393 1.434-5.024 1.434-7.417 0s-3.828-3.828-3.828-6.459v-270.175c0-2.631 1.434-5.024 3.828-6.459 1.197-0.719 2.393-0.959 3.828-0.959 1.197 0 2.631 0.238 3.828 0.959l234.042 135.208c2.393 1.434 3.828 3.828 3.828 6.459-0.238 2.393-1.673 4.786-4.066 6.221z" />
<glyph unicode="&#xe9e1;" glyph-name="clipboard-outline" d="M813.451 773.015h-214.306c0 1.098 0 2.465 0 3.563 0 48.232-39.192 87.424-87.143 87.424s-87.143-39.192-87.143-87.424c0-1.098 0-2.465 0-3.563h-214.306c-15.35 0-27.953-12.604-27.953-27.953v-685.113c0-15.35 12.604-27.953 27.953-27.953h602.899c15.35 0 27.953 12.604 27.953 27.953v685.113c0 15.35-12.604 27.953-27.953 27.953zM407.594 717.114h208.548v-60.287h-208.548v60.287zM470.621 776.577c0 22.744 18.631 41.379 41.379 41.379s41.379-18.631 41.379-41.379c0-1.098 0-2.465-0.273-3.563h-82.214c-0.273 1.098-0.273 2.465-0.273 3.563zM785.497 87.91h-546.992v629.204h125.236v-82.214c0-12.055 9.867-21.926 21.926-21.926h252.397c12.055 0 21.926 9.867 21.926 21.926v82.214h125.236v-629.204z" />
<glyph unicode="&#xe9e2;" glyph-name="content-cut" d="M857.945 279.972c-13.516 37.18-40.837 67.034-76.89 83.939s-76.331 18.595-113.794 5.072c-31.826-11.545-58.304-33.236-75.769-61.678l-49.571 136.323 121.683 334.612c5.348 14.64-2.253 30.703-16.9 36.053s-30.703-2.253-36.053-16.9l-98.582-271.805-98.867 271.525c-5.348 14.64-21.405 22.251-36.053 16.9s-22.251-21.405-16.9-36.053l121.683-334.612-49.571-136.323c-17.465 28.443-43.942 50.134-75.769 61.678-37.18 13.516-77.741 11.83-113.794-5.072s-63.374-46.472-76.89-83.939c-13.516-37.18-11.83-77.741 5.072-113.794s46.472-63.374 83.939-76.89c16.618-5.915 33.8-9.011 50.98-9.011 21.405 0 42.815 4.792 62.811 14.088 36.053 16.9 63.374 46.472 76.89 83.939l66.47 182.519 66.47-182.519c13.516-37.18 40.837-67.034 76.89-83.939 19.999-9.297 41.41-14.088 62.811-14.088 17.187 0 34.357 3.096 50.98 9.011 37.18 13.516 67.034 40.837 83.939 76.89s18.31 76.89 4.792 114.072zM274.348 142.525c-23.102 8.451-41.688 25.346-52.107 47.878-10.42 22.251-11.545 47.323-3.096 70.691s25.346 41.688 47.878 52.107c12.395 5.915 25.633 8.729 38.864 8.729 10.707 0 21.405-1.974 31.545-5.628 23.102-8.451 41.688-25.346 52.107-47.878 10.42-22.251 11.545-47.323 3.096-70.691-17.465-47.878-70.415-72.669-118.302-55.21zM801.896 190.125c-10.42-22.251-29.015-39.434-52.107-47.878-47.878-17.465-100.834 7.325-118.302 55.21-8.451 23.102-7.325 48.161 3.096 70.691 10.42 22.251 29.015 39.434 52.107 47.878 10.42 3.666 21.126 5.628 31.545 5.628 13.237 0 26.478-2.818 38.864-8.729 22.251-10.42 39.434-29.015 47.878-52.107s7.325-48.161-3.096-70.691z" />
<glyph unicode="&#xe9e3;" glyph-name="image-filter-none" d="M809.801 203.593h-481.636c-30.019 0-54.197 24.439-54.197 54.197v488.012c0 30.019 24.439 54.197 54.197 54.197h481.636c30.019 0 54.197-24.439 54.197-54.197v-488.012c0-30.019-24.439-54.197-54.197-54.197zM328.16 746.865c-0.535 0-1.067-0.535-1.067-1.067v-488.012c0-0.535 0.535-1.067 1.067-1.067h481.636c0.535 0 1.067 0.535 1.067 1.067v488.012c0 0.535-0.535 1.067-1.067 1.067h-481.636zM723.464 96.003h-509.264c-29.755 0-54.197 24.439-54.197 54.461v515.38c0 14.615 11.957 26.565 26.565 26.565s26.565-11.957 26.565-26.565v-515.38c0-0.802 0.535-1.331 1.067-1.331h509.528c14.615 0 26.565-11.957 26.565-26.565s-11.957-26.565-26.829-26.565z" />
<glyph unicode="&#xe9e4;" glyph-name="content-copy" d="M809.803 96h-488.014c-30.019 0-54.197 24.439-54.197 54.197v481.637c0 30.019 24.439 54.197 54.197 54.197h488.014c30.019 0 54.197-24.439 54.197-54.197v-481.637c0-29.755-24.439-54.197-54.197-54.197zM321.787 632.899c-0.535 0-1.067-0.535-1.067-1.067v-481.637c0-0.535 0.535-1.067 1.067-1.067h488.014c0.535 0 1.067 0.535 1.067 1.067v481.637c0 0.535-0.535 1.067-1.067 1.067h-488.014zM186.566 209.971c-14.615 0-26.565 11.957-26.565 26.565v509.266c0 29.755 24.439 54.197 54.461 54.197h515.382c14.615 0 26.565-11.957 26.565-26.565s-11.957-26.565-26.565-26.565h-515.382c-0.802 0-1.331-0.535-1.331-1.067v-509.53c0-14.615-11.957-26.301-26.565-26.301z" />
</font>
</defs>
</svg>
